<?xml version="1.0" standalone="no"?>
<!DOCTYPE svg PUBLIC "-//W3C//DTD SVG 1.1//EN" "http://www.w3.org/Graphics/SVG/1.1/DTD/svg11.dtd" >
<svg xmlns="http://www.w3.org/2000/svg" xmlns:xlink="http://www.w3.org/1999/xlink" version="1.1">
<metadata>
Created by FontForge 20170731 at Fri Oct 22 04:01:47 2021
 By Aleksey,,,
Copyright (c) 1990, 2002 Adobe Systems Incorporated.  All Rights Reserved. (c) 1981, 2002 Heidelberger Druckmaschinen AG. All rights reserved.
</metadata>
<defs>
<font id="HelveticaNeueLTStd-BlkEx" horiz-adv-x="1781" >
  <font-face 
    font-family="HelveticaNeueLT Std Blk Ext"
    font-weight="900"
    font-stretch="expanded"
    units-per-em="2048"
    panose-1="2 11 10 7 4 5 2 3 2 4"
    ascent="1462"
    descent="-586"
    x-height="1120"
    cap-height="1462"
    bbox="-487 -442 2892 2071"
    underline-thickness="102"
    underline-position="-307"
    unicode-range="U+0020-FB02"
  />
<missing-glyph horiz-adv-x="1024" 
d="M0 0v1434h1024v-1434h-1024zM512 809l348 522h-696zM573 717l349 -522v1044zM164 102h696l-348 523zM102 1239v-1044l349 522z" />
    <glyph glyph-name="fi" unicode="fi" horiz-adv-x="1818" 
d="M1184 0v1120h512v-1120h-512zM1184 1231v282h512v-282h-512zM256 0v801h-238v319h238v119q0 155 103 221t350 66q197 0 335 -13v-270h-153q-68 0 -95.5 -21.5t-27.5 -68.5v-33h276v-319h-276v-801h-512z" />
    <glyph glyph-name="fl" unicode="fl" horiz-adv-x="1818" 
d="M256 0v801h-238v319h238v119q0 155 103 221t350 66q197 0 335 -13v-270h-153q-68 0 -95.5 -21.5t-27.5 -68.5v-33h276v-319h-276v-801h-512zM1184 0v1513h512v-1513h-512z" />
    <glyph glyph-name=".notdef" horiz-adv-x="1024" 
d="M0 0v1434h1024v-1434h-1024zM512 809l348 522h-696zM573 717l349 -522v1044zM164 102h696l-348 523zM102 1239v-1044l349 522z" />
    <glyph glyph-name=".null" horiz-adv-x="0" 
 />
    <glyph glyph-name="nonmarkingreturn" horiz-adv-x="682" 
 />
    <glyph glyph-name="space" unicode=" " horiz-adv-x="835" 
 />
    <glyph glyph-name="exclam" unicode="!" horiz-adv-x="835" 
d="M199 563l-58 899h553l-61 -899h-434zM150 0v459h536v-459h-536z" />
    <glyph glyph-name="quotedbl" unicode="&#x22;" horiz-adv-x="1478" 
d="M823 586v876h344v-876h-344zM311 586v876h344v-876h-344z" />
    <glyph glyph-name="numbersign" unicode="#" horiz-adv-x="1228" 
d="M680 612l27 197h-158l-27 -197h158zM178 0l51 367h-157v245h192l27 197h-160v246h195l51 366h258l-51 -366h157l52 366h258l-52 -366h158v-246h-192l-27 -197h160v-245h-195l-51 -367h-258l51 367h-158l-51 -367h-258z" />
    <glyph glyph-name="dollar" unicode="$" horiz-adv-x="1974" 
d="M1016 528v-213q111 1 152.5 25t41.5 70q0 89 -104 104zM905 948v195q-98 0 -140 -20.5t-42 -67.5t34.5 -67t147.5 -40zM905 -225v184q-379 9 -567.5 117t-200.5 354h602q6 -58 47 -83t119 -32v230l-385 61q-95 15 -166 52t-113 89.5t-62.5 115t-20.5 134.5q0 101 33 179
t94 131.5t154 87.5t207 50t259 17v185h111v-185q123 -4 223.5 -17.5t199.5 -46t168.5 -82t117 -129t57.5 -183.5h-602q-10 122 -164 139v-211l336 -51q264 -41 374.5 -141.5t110.5 -290.5q0 -89 -25.5 -161t-68 -122t-106.5 -87.5t-132 -60t-155 -36t-164.5 -18.5t-169.5 -5
v-184h-111z" />
    <glyph glyph-name="percent" unicode="%" horiz-adv-x="2238" 
d="M1561 354q0 -174 155 -174q156 0 156 174t-156 174q-155 0 -155 -174zM508 -41l958 1503h263l-959 -1503h-262zM367 1067q0 -174 155 -174q156 0 156 174t-156 174q-155 0 -155 -174zM1241 354q0 197 124 296.5t351 99.5q228 0 351.5 -99t123.5 -297q0 -197 -123 -296
t-352 -99q-228 0 -351.5 99t-123.5 296zM47 1067q0 197 123.5 296t351.5 99q229 0 352 -99t123 -296t-123 -296t-352 -99q-228 0 -351.5 99t-123.5 296z" />
    <glyph glyph-name="ampersand" unicode="&#x26;" horiz-adv-x="2125" 
d="M866 1126q0 -30 27 -60t88 -73q80 30 116 59.5t36 80.5q0 38 -39.5 63t-98.5 25q-61 0 -95 -26t-34 -69zM1098 336l-361 323q-62 -29 -89 -69.5t-27 -102.5q0 -85 72 -145.5t173 -60.5q65 0 134 17t98 38zM1456 0l-117 109q-92 -67 -261.5 -113.5t-350.5 -46.5
q-189 0 -337 56t-235 168t-87 265q0 166 109.5 274.5t318.5 151.5q-142 110 -142 250q0 60 20.5 112.5t67 99.5t117.5 80.5t177.5 53t240.5 19.5q120 0 224 -19.5t189.5 -60t135 -110t49.5 -161.5q0 -123 -84.5 -200.5t-255.5 -114.5l246 -227q94 74 156.5 134.5
t138.5 143.5l245 -215q-81 -99 -141.5 -156t-148.5 -124l411 -369h-686z" />
    <glyph glyph-name="quotesingle" unicode="'" horiz-adv-x="835" 
d="M246 586v876h344v-876h-344z" />
    <glyph glyph-name="parenleft" unicode="(" horiz-adv-x="1024" 
d="M532 1462h359q-97 -184 -163 -433t-66 -492t66 -492.5t163 -433.5h-359q-169 157 -275.5 404.5t-106.5 521.5t106.5 521t275.5 404z" />
    <glyph glyph-name="parenright" unicode=")" horiz-adv-x="1024" 
d="M492 -389h-359q97 184 163 433.5t66 492.5t-66 492t-163 433h359q169 -157 275.5 -404t106.5 -521t-106.5 -521.5t-275.5 -404.5z" />
    <glyph glyph-name="asterisk" unicode="*" horiz-adv-x="950" 
d="M-6 1016l80 262l272 -113l-12 297h282l-12 -297l273 113l79 -262l-272 -82l182 -227l-227 -170l-164 241l-164 -241l-227 170l182 227z" />
    <glyph glyph-name="plus" unicode="+" horiz-adv-x="1228" 
d="M467 666v370h295v-370h371v-295h-371v-371h-295v371h-371v295h371z" />
    <glyph glyph-name="comma" unicode="," horiz-adv-x="835" 
d="M150 0v459h536v-348q0 -98 -27 -180.5t-73 -138t-101.5 -97t-118 -65t-115.5 -35t-101 -13.5v185q230 26 241 233h-241z" />
    <glyph glyph-name="hyphen" unicode="-" horiz-adv-x="985" 
d="M121 424v356h743v-356h-743z" />
    <glyph glyph-name="period" unicode="." horiz-adv-x="835" 
d="M150 0v459h536v-459h-536z" />
    <glyph glyph-name="slash" unicode="/" horiz-adv-x="909" 
d="M-12 -51l571 1564h363l-572 -1564h-362z" />
    <glyph glyph-name="zero" unicode="0" horiz-adv-x="1974" 
d="M78 707q5 363 237.5 557t675.5 194q446 0 678 -194t227 -557q0 -358 -233 -551t-678 -193q-442 0 -674.5 193.5t-232.5 550.5zM631 707q2 -71 24 -135.5t63.5 -119.5t112 -87.5t160.5 -32.5q92 0 163 32.5t111.5 87t60 119.5t17.5 136q0 74 -20.5 140.5t-62 122
t-112.5 88t-163 32.5q-90 0 -160 -32.5t-111 -88t-62 -122t-21 -140.5z" />
    <glyph glyph-name="one" unicode="1" horiz-adv-x="1363" 
d="M567 0v809h-434v356h86q196 3 299 58t154 198h432v-1421h-537z" />
    <glyph glyph-name="two" unicode="2" horiz-adv-x="1974" 
d="M758 786l420 91q110 21 110 110q0 59 -63.5 87t-169.5 28q-55 0 -93.5 -3t-84.5 -14.5t-75 -32t-50.5 -58.5t-26.5 -91h-614q9 102 43.5 184.5t84.5 139.5t120.5 99.5t142.5 67t159.5 39.5t162.5 20t161 5q106 0 197.5 -5.5t185.5 -20t169.5 -38t143 -60.5t112.5 -86
t71 -117.5t26 -151.5q0 -65 -21 -121.5t-59 -98.5t-84 -75.5t-103 -57t-108.5 -39t-107.5 -26.5l-514 -96q-172 -32 -223 -109h1190v-356h-1799q2 114 24.5 211.5t58.5 170.5t89 133.5t110.5 102.5t130 75.5t139 54.5t145.5 38z" />
    <glyph glyph-name="three" unicode="3" horiz-adv-x="1974" 
d="M694 573v332h398q88 0 121.5 26t33.5 70q0 20 -5.5 35.5t-22 30.5t-44 25t-75 16t-111.5 6q-98 0 -146.5 -7t-70 -21t-41.5 -46h-602q10 116 72.5 198t176.5 129.5t264 69t351 21.5q312 0 500.5 -42.5t275 -130.5t86.5 -232q0 -49 -9 -87.5t-34 -79.5t-76.5 -71.5
t-127.5 -48.5v-4q137 -32 212.5 -115.5t75.5 -216.5q0 -83 -26 -151.5t-88.5 -128.5t-160 -100.5t-247 -63.5t-342.5 -23q-84 0 -147 1.5t-145 7.5t-143 16.5t-131 29t-121.5 45t-101.5 65.5t-83 87.5t-55 114.5t-27 145h590q9 -80 77 -117q71 -39 248 -39q76 0 131.5 8.5
t86.5 21.5t49 32.5t23 37t5 40.5q0 65 -54 89.5t-169 24.5h-371z" />
    <glyph glyph-name="four" unicode="4" horiz-adv-x="1974" 
d="M1128 561v516l-520 -516h520zM84 217v358l821 846h735v-860h265v-344h-265v-217h-512v217h-1044z" />
    <glyph glyph-name="five" unicode="5" horiz-adv-x="1974" 
d="M162 612l151 809h1493v-344h-1134l-29 -145q191 49 412 49q76 0 144.5 -4t155.5 -16.5t158.5 -34t143 -60t120 -90t79 -128.5t30.5 -171q0 -91 -31.5 -168t-100 -141.5t-171.5 -109.5t-253 -70t-337 -25q-240 0 -409.5 31.5t-276 96.5t-158.5 157.5t-61 222.5h600
q19 -69 76 -102q67 -37 217 -37q168 0 248 37t80 116q0 177 -355 177q-76 0 -141.5 -14.5t-97.5 -35.5h-553z" />
    <glyph glyph-name="six" unicode="6" horiz-adv-x="1974" 
d="M1858 999h-578q-17 68 -98 93q-67 22 -185 22q-168 0 -252.5 -64t-91.5 -202q136 82 424 82q132 0 243 -12.5t216 -45t177.5 -83.5t116.5 -132.5t44 -187.5q0 -235 -201 -370.5t-612 -135.5q-116 0 -207.5 6t-195 25t-181 51t-151.5 87.5t-121.5 131.5t-76 185.5
t-28.5 246.5q0 182 48 318t127.5 219.5t198.5 135t244 70.5t281 19q144 0 259 -12.5t221 -44t180.5 -83t127 -132t71.5 -187.5zM995 598q-164 0 -227 -36t-63 -109q0 -68 77.5 -107t212.5 -39q163 0 226 36.5t63 109.5q0 67 -77.5 106t-211.5 39z" />
    <glyph glyph-name="seven" unicode="7" horiz-adv-x="1896" 
d="M59 1053v368h1778v-442q-404 -285 -594.5 -514.5t-232.5 -464.5h-742q10 90 31.5 163t66 151.5t111.5 153t172 165t244 190.5t330 226v4h-1164z" />
    <glyph glyph-name="eight" unicode="8" horiz-adv-x="1974" 
d="M985 881q154 0 213 25t59 93q0 66 -59.5 90.5t-212.5 24.5t-212.5 -24.5t-59.5 -90.5q0 -68 59 -93t213 -25zM987 586q-172 2 -239.5 -29.5t-67.5 -116.5q0 -30 14 -53t47.5 -41.5t95 -28.5t150.5 -10t150.5 10t95 28.5t47.5 41.5t14 53q0 85 -67.5 116.5t-239.5 29.5z
M987 1458q135 0 242.5 -7t207.5 -24t172.5 -47t127.5 -73.5t82.5 -105.5t27.5 -142q0 -120 -67 -196.5t-187 -96.5v-4q96 -13 166.5 -64t103.5 -118.5t33 -141.5q0 -248 -219.5 -361.5t-691.5 -113.5q-469 0 -688 113.5t-219 361.5q0 115 79.5 210t219.5 114v4
q-120 20 -187 96.5t-67 196.5q0 80 27.5 142t82.5 105.5t128 73.5t173.5 47t208.5 24t244 7z" />
    <glyph glyph-name="nine" unicode="9" horiz-adv-x="1974" 
d="M117 422h577q17 -66 99 -92q70 -23 184 -23q168 0 252.5 64t91.5 202q-63 -40 -170 -61q-117 -20 -254 -20q-797 0 -797 460q0 235 201 370.5t612 135.5q116 0 207.5 -6t195 -25t181 -51t151.5 -87.5t121.5 -131.5t76 -185.5t28.5 -246.5q0 -182 -48 -318t-127.5 -219.5
t-198.5 -135t-244 -70.5t-281 -19q-144 0 -259 12.5t-220.5 44t-180 83t-127 132t-71.5 187.5zM979 823q164 0 227.5 36.5t63.5 109.5q0 67 -78 106t-213 39q-163 0 -226 -36t-63 -109q0 -67 77.5 -106.5t211.5 -39.5z" />
    <glyph glyph-name="colon" unicode=":" horiz-adv-x="835" 
d="M150 662v458h536v-458h-536zM150 0v459h536v-459h-536z" />
    <glyph glyph-name="semicolon" unicode=";" horiz-adv-x="835" 
d="M150 0v459h536v-348q0 -98 -27 -180.5t-73 -138t-101.5 -97t-118 -65t-115.5 -35t-101 -13.5v185q230 26 241 233h-241zM150 662v458h536v-458h-536z" />
    <glyph glyph-name="less" unicode="&#x3c;" horiz-adv-x="1228" 
d="M96 362v312l1037 391v-283l-707 -264l707 -264v-283z" />
    <glyph glyph-name="equal" unicode="=" horiz-adv-x="1228" 
d="M96 600v295h1037v-295h-1037zM96 141v295h1037v-295h-1037z" />
    <glyph glyph-name="greater" unicode="&#x3e;" horiz-adv-x="1228" 
d="M96 -29v283l707 264l-707 264v283l1037 -391v-312z" />
    <glyph glyph-name="question" unicode="?" horiz-adv-x="1744" 
d="M616 963h-577q20 149 67.5 250.5t137.5 166.5q95 68 249.5 100.5t391.5 32.5q215 0 373 -31t251 -89.5t137 -134.5t44 -173q0 -56 -9.5 -97t-36 -85t-81 -81t-138.5 -68q-136 -50 -196.5 -77t-82 -45t-30.5 -46h-524q1 39 3.5 62.5t10 53t22 49t39.5 43t62 42.5t90 40
t123 42q88 27 123 60.5t35 86.5t-54 91t-172 38q-258 0 -258 -231zM586 0v459h536v-459h-536z" />
    <glyph glyph-name="at" unicode="@" horiz-adv-x="1638" 
d="M635 684q0 -76 41.5 -125t111.5 -49q92 0 151.5 65t59.5 156q0 76 -44 123t-115 47q-84 0 -144.5 -66.5t-60.5 -150.5zM1065 1006l25 102h200l-92 -500q-31 -116 14 -116q74 0 133.5 82t59.5 237q-1 164 -74.5 279.5t-197 171t-285.5 55.5q-262 0 -421 -164t-157 -424
q0 -269 171 -426.5t446 -157.5q233 0 399 121h213q-115 -155 -275.5 -236t-355.5 -81q-169 0 -321.5 58t-265 160t-178.5 248t-66 314q0 164 65 310t175 249.5t261 164t318 60.5q112 0 221 -28t203.5 -83.5t166.5 -131t113.5 -176.5t41.5 -215q0 -98 -24.5 -183t-63.5 -145
t-91 -109t-104.5 -79t-105.5 -50.5t-93 -28.5t-69 -8q-46 0 -78 27t-35 76h-4q-39 -43 -95.5 -73t-107.5 -30q-140 0 -247 112t-107 261q0 127 52 237t151.5 179.5t226.5 69.5q175 0 258 -129z" />
    <glyph glyph-name="A" unicode="A" horiz-adv-x="1818" 
d="M1083 524l-172 496h-4l-172 -496h348zM-68 0l623 1462h709l622 -1462h-614l-62 168h-602l-61 -168h-615z" />
    <glyph glyph-name="B" unicode="B" horiz-adv-x="2048" 
d="M707 1106v-188h436q82 0 112.5 24.5t30.5 71.5q0 44 -30.5 68t-112.5 24h-436zM707 586v-230h493q150 0 150 115t-150 115h-493zM141 0v1462h1315q432 0 432 -364q0 -99 -46 -176t-128 -109v-4q54 -14 98 -43t71.5 -64t46.5 -76.5t26.5 -78.5t7.5 -72q0 -112 -29.5 -196
t-95 -148.5t-177.5 -97.5t-269 -33h-1252z" />
    <glyph glyph-name="C" unicode="C" horiz-adv-x="2086" 
d="M1372 569h651q-30 -156 -86.5 -267.5t-158.5 -186.5q-221 -166 -715 -166q-97 0 -167.5 3t-182 19.5t-192.5 46t-173 88t-150 139t-96.5 205t-38.5 281.5t38.5 281.5t96.5 205t150 139t173 88t192.5 46t182 19.5t167.5 3q67 0 123 -2t129.5 -10t134.5 -21t131 -36.5
t125.5 -55.5t110.5 -79.5t94.5 -106.5t69.5 -139t42 -174h-651q-7 44 -24.5 84.5t-51.5 81.5t-94 65.5t-139 24.5q-385 0 -385 -414q0 -214 94.5 -314t261.5 -100q138 0 220.5 60.5t117.5 191.5z" />
    <glyph glyph-name="D" unicode="D" horiz-adv-x="2086" 
d="M719 1094v-725h332q193 0 281.5 91.5t88.5 270.5t-88.5 271t-281.5 92h-332zM141 0v1462h1125q191 0 328.5 -38.5t235 -124.5t145.5 -227t48 -341q0 -378 -187 -554.5t-558 -176.5h-1137z" />
    <glyph glyph-name="E" unicode="E" horiz-adv-x="1744" 
d="M141 0v1462h1555v-356h-977v-197h907v-356h-907v-197h977v-356h-1555z" />
    <glyph glyph-name="F" unicode="F" horiz-adv-x="1630" 
d="M141 0v1462h1481v-356h-903v-223h831v-357h-831v-526h-578z" />
    <glyph glyph-name="G" unicode="G" horiz-adv-x="2125" 
d="M1182 502v332h821v-834h-248l-65 133q-112 -100 -266.5 -142t-403.5 -42q-957 0 -957 776q0 134 30 245.5t81.5 191.5t125.5 142t156 101t179.5 64t190 34.5t192.5 9.5q480 0 719.5 -134t273.5 -418h-651q-22 102 -113 149q-71 35 -196 35q-385 0 -385 -414
q0 -204 108 -309t322 -105q255 0 323 185h-237z" />
    <glyph glyph-name="H" unicode="H" horiz-adv-x="2086" 
d="M1368 0v584h-649v-584h-578v1462h578v-510h649v510h578v-1462h-578z" />
    <glyph glyph-name="I" unicode="I" horiz-adv-x="872" 
d="M147 0v1462h578v-1462h-578z" />
    <glyph glyph-name="J" unicode="J" horiz-adv-x="1630" 
d="M940 532v930h578v-887q0 -86 -7.5 -153t-27.5 -134t-53.5 -116.5t-88 -93t-129.5 -71t-179 -43t-234 -15.5q-175 0 -298.5 18.5t-220 63t-153.5 121t-86 189t-29 271.5h578q0 -93 4.5 -144.5t21.5 -86.5q19 -39 53.5 -57.5t94.5 -18.5q92 0 134 53.5t42 173.5z" />
    <glyph glyph-name="K" unicode="K" horiz-adv-x="2009" 
d="M1309 0l-400 561l-190 -168v-393h-578v1462h578v-516l536 516h766l-653 -565l709 -897h-768z" />
    <glyph glyph-name="L" unicode="L" horiz-adv-x="1630" 
d="M141 0v1462h578v-1069h895v-393h-1473z" />
    <glyph glyph-name="M" unicode="M" horiz-adv-x="2392" 
d="M141 0v1462h813l240 -850h4l240 850h813v-1462h-525v1044h-4l-307 -1044h-438l-307 1044h-4v-1044h-525z" />
    <glyph glyph-name="N" unicode="N" horiz-adv-x="2086" 
d="M141 0v1462h660l585 -811h7v811h553v-1462h-633l-615 819h-4v-819h-553z" />
    <glyph glyph-name="O" unicode="O" horiz-adv-x="2125" 
d="M63 731q0 157 38.5 281.5t96.5 205t150 139t173 88t192.5 46t182 19.5t167.5 3t167.5 -3t182 -19.5t192.5 -46t172.5 -88t149.5 -139t96.5 -205t38.5 -281.5t-38.5 -281.5t-96.5 -205t-149.5 -139t-172.5 -88t-192.5 -46t-182 -19.5t-167.5 -3t-167.5 3t-182 19.5
t-192.5 46t-173 88t-150 139t-96.5 205t-38.5 281.5zM678 731q0 -414 385 -414t385 414t-385 414t-385 -414z" />
    <glyph glyph-name="P" unicode="P" horiz-adv-x="1933" 
d="M141 0v1462h1192q298 0 429.5 -128t131.5 -382q0 -109 -30 -196.5t-94 -156.5t-174 -106.5t-259 -37.5h-618v-455h-578zM719 1118v-307h373q108 0 154 36t46 116q0 84 -46 119.5t-154 35.5h-373z" />
    <glyph glyph-name="Q" unicode="Q" horiz-adv-x="2125" 
d="M1040 408l238 256l141 -125q29 82 29 192q0 414 -385 414t-385 -414t385 -414q13 0 70 5zM1821 -301l-322 291q-73 -18 -182 -29q-114 -12 -254 -12q-97 0 -167.5 3t-182 19.5t-192.5 46t-173 88t-150 139t-96.5 205t-38.5 281.5t38.5 281.5t96.5 205t150 139t173 88
t192.5 46t182 19.5t167.5 3t167.5 -3t182 -19.5t192.5 -46t172.5 -88t149.5 -139t96.5 -205t38.5 -281.5q0 -379 -215 -571l215 -193z" />
    <glyph glyph-name="R" unicode="R" horiz-adv-x="1970" 
d="M141 0v1462h1217q237 0 346 -53q84 -41 141.5 -139t57.5 -215q0 -73 -20.5 -137t-73 -119t-132.5 -78v-4q68 -20 113.5 -77t52.5 -148l25 -320q9 -96 71 -172h-630q-3 7 -6 14.5t-5 18.5t-3.5 19.5t-3.5 24.5t-3 27.5t-2 34.5t-2 38t-3 46.5t-3 52.5q-5 86 -39.5 130.5
t-110.5 44.5h-409v-451h-578zM719 1094v-275h409q84 0 122 33.5t38 103.5q0 78 -44 108t-124 30h-401z" />
    <glyph glyph-name="S" unicode="S" horiz-adv-x="1970" 
d="M1128 522l-659 99q-203 31 -301 140t-98 271q0 111 43 195.5t117 138t183.5 87t230.5 47t271 13.5q321 0 528 -56t304.5 -160.5t107.5 -262.5h-671q0 84 -88 117q-69 31 -181 31q-231 0 -231 -105q0 -65 76 -76l690 -102q225 -33 348 -139t123 -287q0 -268 -227.5 -396
t-712.5 -128q-104 0 -192 4.5t-186 18t-175.5 35.5t-150 59.5t-121 88t-78 123t-29.5 162.5h696q3 -71 62 -104q67 -31 197 -31q127 0 178 31t51 88q0 36 -25 63t-80 35z" />
    <glyph glyph-name="T" unicode="T" horiz-adv-x="1630" 
d="M526 0v1094h-534v368h1646v-368h-534v-1094h-578z" />
    <glyph glyph-name="U" unicode="U" horiz-adv-x="1970" 
d="M111 555v907h577v-884q0 -135 74.5 -191.5t222.5 -56.5t222.5 56.5t74.5 191.5v884h578v-907q0 -173 -52 -290.5t-164 -187t-270.5 -99t-388.5 -29.5t-388.5 29.5t-270 99t-163.5 186.5t-52 291z" />
    <glyph glyph-name="V" unicode="V" horiz-adv-x="1744" 
d="M569 0l-655 1462h635l321 -938h4l322 938h635l-655 -1462h-607z" />
    <glyph glyph-name="W" unicode="W" horiz-adv-x="2387" 
d="M424 0l-426 1462h559l188 -893h5l215 893h460l213 -893h4l189 893h559l-428 -1462h-567l-199 811h-4l-201 -811h-567z" />
    <glyph glyph-name="X" unicode="X" horiz-adv-x="1818" 
d="M-74 0l658 764l-572 698h678l219 -319l219 319h678l-571 -698l657 -764h-712l-271 377l-270 -377h-713z" />
    <glyph glyph-name="Y" unicode="Y" horiz-adv-x="1703" 
d="M563 0v412l-649 1050h659l279 -573l278 573h660l-649 -1050v-412h-578z" />
    <glyph glyph-name="Z" unicode="Z" horiz-adv-x="1744" 
d="M45 0v309l877 785h-818v368h1596v-319l-856 -774h833v-369h-1632z" />
    <glyph glyph-name="bracketleft" unicode="[" horiz-adv-x="1024" 
d="M109 -389v1851h888v-368h-376v-1114h376v-369h-888z" />
    <glyph glyph-name="backslash" unicode="\" horiz-adv-x="909" 
d="M559 -51l-571 1564h362l572 -1564h-363z" />
    <glyph glyph-name="bracketright" unicode="]" horiz-adv-x="1024" 
d="M27 -389v369h376v1114h-376v368h888v-1851h-888z" />
    <glyph glyph-name="asciicircum" unicode="^" horiz-adv-x="1228" 
d="M840 674l-226 489l-225 -489h-301l356 747h340l357 -747h-301z" />
    <glyph glyph-name="underscore" unicode="_" horiz-adv-x="1024" 
d="M0 -256v102h1024v-102h-1024z" />
    <glyph glyph-name="grave" unicode="`" horiz-adv-x="569" 
d="M102 1231l-313 295h621l186 -295h-494z" />
    <glyph glyph-name="a" unicode="a" 
d="M643 780h-512q24 117 75.5 190t145.5 117q171 78 582 78q395 0 562 -101t167 -349v-541q0 -104 47 -174h-524q-16 53 -19 111q-87 -80 -222.5 -118t-338.5 -38q-274 0 -417.5 87t-143.5 292q0 160 124.5 250t399.5 102l432 21q76 4 107 25t31 67q0 54 -63 81t-175 27
q-49 0 -87 -5t-75.5 -17.5t-62 -39t-33.5 -65.5zM1151 461v49q-87 -18 -414 -47q-72 -6 -105.5 -32t-33.5 -79q0 -60 48.5 -93.5t141.5 -33.5q71 0 130.5 10.5t114.5 35t86.5 73t31.5 117.5z" />
    <glyph glyph-name="b" unicode="b" 
d="M123 0v1513h512v-520h4q131 158 444 158q102 0 194 -22t173.5 -69t141 -116t94 -169.5t34.5 -221.5t-34.5 -221.5t-94 -169.5t-141 -116t-173.5 -69t-194 -22q-318 0 -460 164h-5v-119h-495zM635 553q0 -254 280 -254q143 0 212 68.5t69 185.5q0 112 -72.5 183t-205.5 71
q-283 0 -283 -254z" />
    <glyph glyph-name="c" unicode="c" 
d="M1724 670h-536q-8 96 -96 141q-66 35 -185 35q-161 0 -235 -77t-74 -200q0 -132 78 -207t227 -75q116 0 188 41.5t97 144.5h536q-11 -97 -44.5 -175t-79.5 -131t-112 -92.5t-131.5 -62t-148.5 -36t-153 -17.5t-154 -4q-840 0 -840 608q0 602 840 602q148 0 265.5 -15.5
t216 -51.5t167 -93t113.5 -140.5t61 -194.5z" />
    <glyph glyph-name="d" unicode="d" 
d="M1163 0v119h-4q-142 -164 -461 -164q-102 0 -194 22t-173.5 69t-141 116t-94 169.5t-34.5 221.5t34.5 221.5t94 169.5t141 116t173.5 69t194 22q314 0 445 -158h4v520h512v-1513h-496zM1147 553q0 254 -283 254q-133 0 -205.5 -71t-72.5 -183q0 -117 68.5 -185.5
t211.5 -68.5q281 0 281 254z" />
    <glyph glyph-name="e" unicode="e" 
d="M586 698h610q-7 91 -89 144t-214 53q-136 0 -211.5 -46.5t-95.5 -150.5zM1161 336h545q-60 -180 -256 -279q-202 -102 -543 -102q-411 0 -628.5 151.5t-217.5 454.5q0 289 210 446.5t589 157.5q155 0 280.5 -21.5t235.5 -73t183 -133.5t114 -207.5t39 -289.5h-1126
q0 -32 17.5 -65.5t52 -65t97 -51.5t142.5 -20q100 0 162.5 23t103.5 75z" />
    <glyph glyph-name="f" unicode="f" horiz-adv-x="1062" 
d="M256 0v801h-238v319h238v119q0 155 103 221t350 66q197 0 335 -13v-270h-153q-68 0 -95.5 -21.5t-27.5 -68.5v-33h276v-319h-276v-801h-512z" />
    <glyph glyph-name="g" unicode="g" horiz-adv-x="1818" 
d="M1184 94v96q-136 -120 -445 -120q-330 0 -504 138t-174 402q0 129 52 232.5t144 170.5t215 102.5t267 35.5q300 0 461 -158v127h496v-1040q0 -263 -193.5 -380.5t-587.5 -117.5q-280 0 -449 40.5t-253 124.5t-109 228h566q12 -56 63 -81q60 -29 170 -29q153 0 217 55
t64 174zM1184 600q0 96 -71 157.5t-224 61.5q-149 0 -220 -61.5t-71 -157.5q0 -99 71 -161t220 -62q153 0 224 62t71 161z" />
    <glyph glyph-name="h" unicode="h" horiz-adv-x="1703" 
d="M123 0v1513h512v-532h4q44 65 161 117.5t285 52.5q109 0 197.5 -25t156 -76.5t105 -137t37.5 -199.5v-713h-512v580q0 103 -51.5 152.5t-145.5 49.5q-107 0 -172 -66.5t-65 -199.5v-516h-512z" />
    <glyph glyph-name="i" unicode="i" horiz-adv-x="757" 
d="M123 0v1120h512v-1120h-512zM123 1231v282h512v-282h-512z" />
    <glyph glyph-name="j" unicode="j" horiz-adv-x="796" 
d="M-51 -389v356h94q39 0 58 3t35 15.5t21 36t5 66.5v1032h512v-1112q0 -78 -10.5 -138.5t-28.5 -103.5t-49.5 -73t-65.5 -48.5t-84.5 -28.5t-99 -13.5t-115.5 -3.5q-181 0 -272 12zM162 1231v282h512v-282h-512z" />
    <glyph glyph-name="k" unicode="k" horiz-adv-x="1703" 
d="M123 0v1513h512v-755l387 362h680l-510 -418l561 -702h-692l-266 377l-160 -131v-246h-512z" />
    <glyph glyph-name="l" unicode="l" horiz-adv-x="757" 
d="M123 0v1513h512v-1513h-512z" />
    <glyph glyph-name="m" unicode="m" horiz-adv-x="2387" 
d="M123 0v1120h495v-153h5q142 184 417 184q106 0 181 -24.5t116.5 -63t73.5 -98.5q57 83 161.5 134.5t250.5 51.5q95 0 173.5 -21.5t139.5 -65.5t95 -118.5t34 -173.5v-772h-512v633q0 82 -33.5 115.5t-103.5 33.5q-174 0 -174 -188v-594h-496v633q0 82 -33.5 115.5
t-103.5 33.5q-174 0 -174 -188v-594h-512z" />
    <glyph glyph-name="n" unicode="n" horiz-adv-x="1703" 
d="M123 0v1120h495v-139h5q47 64 170.5 117t291.5 53q109 0 197.5 -25t156 -76.5t105 -137t37.5 -199.5v-713h-512v580q0 103 -51.5 152.5t-145.5 49.5q-107 0 -172 -66.5t-65 -199.5v-516h-512z" />
    <glyph glyph-name="o" unicode="o" 
d="M598 561q0 -137 71 -205.5t222 -68.5q153 0 223 68t70 206q0 135 -70.5 204t-222.5 69q-293 0 -293 -273zM61 561q0 311 199.5 457.5t630.5 146.5t630 -146.5t199 -457.5q0 -312 -199 -459t-630 -147t-630.5 147t-199.5 459z" />
    <glyph glyph-name="p" unicode="p" 
d="M123 -401v1521h495v-133h5q142 164 460 164q102 0 194 -22t173.5 -69t141 -116t94 -169.5t34.5 -221.5t-34.5 -221.5t-94 -169.5t-141 -116t-173.5 -69t-194 -22q-313 0 -444 158h-4v-514h-512zM635 553q0 -254 283 -254q133 0 205.5 71t72.5 183q0 117 -69 185.5
t-212 68.5q-280 0 -280 -254z" />
    <glyph glyph-name="q" unicode="q" 
d="M1147 -401v514h-4q-131 -158 -445 -158q-102 0 -194 22t-173.5 69t-141 116t-94 169.5t-34.5 221.5t34.5 221.5t94 169.5t141 116t173.5 69t194 22q319 0 461 -164h4v133h496v-1521h-512zM1147 553q0 254 -281 254q-143 0 -211.5 -68.5t-68.5 -185.5q0 -112 72.5 -183
t205.5 -71q283 0 283 254z" />
    <glyph glyph-name="r" unicode="r" horiz-adv-x="1290" 
d="M123 0v1120h495v-215h5q188 246 477 246q86 0 168 -12v-459q-160 41 -256 41q-74 0 -136.5 -13.5t-119 -45.5t-89 -93.5t-32.5 -148.5v-420h-512z" />
    <glyph glyph-name="s" unicode="s" horiz-adv-x="1669" 
d="M961 393l-500 51q-213 22 -298 105.5t-85 238.5q0 196 183 286.5t562 90.5q730 0 742 -381h-578q0 48 -39 70q-53 29 -151 29q-106 0 -144.5 -20.5t-38.5 -57.5q0 -58 138 -70l487 -43q200 -18 290.5 -104t90.5 -234q0 -214 -189.5 -306.5t-601.5 -92.5q-402 0 -585 91
t-195 302h602q9 -65 64 -90q46 -20 145 -20q93 0 131.5 22.5t38.5 63.5q0 61 -69 69z" />
    <glyph glyph-name="t" unicode="t" horiz-adv-x="1099" 
d="M18 801v319h238v361h512v-361h276v-319h-276v-395q0 -73 31.5 -92t122.5 -19q39 0 137 4v-299q-188 -25 -373 -25q-124 0 -199.5 14t-130.5 54t-77.5 111t-22.5 186v461h-238z" />
    <glyph glyph-name="u" unicode="u" horiz-adv-x="1703" 
d="M1581 1120v-1120h-496v125h-4q-47 -64 -171 -117t-292 -53q-87 0 -160.5 15.5t-136 49.5t-106 84.5t-68 124t-24.5 164.5v727h512v-594q0 -202 196 -202q118 0 178 70t60 198v528h512z" />
    <glyph glyph-name="v" unicode="v" horiz-adv-x="1556" 
d="M485 0l-518 1120h578l231 -669h4l232 669h577l-518 -1120h-586z" />
    <glyph glyph-name="w" unicode="w" horiz-adv-x="2387" 
d="M381 0l-381 1120h547l182 -661h4l244 661h434l223 -661h4l203 661h547l-381 -1120h-596l-217 586l-217 -586h-596z" />
    <glyph glyph-name="x" unicode="x" horiz-adv-x="1703" 
d="M631 0h-651l516 586l-473 534h626l203 -301l203 301h626l-481 -534l524 -586h-651l-221 317z" />
    <glyph glyph-name="y" unicode="y" horiz-adv-x="1478" 
d="M129 -383v332q61 -6 127 -6q88 0 124.5 14t65.5 72l29 61l-520 1030h537l247 -575l248 575h537l-629 -1302q-33 -66 -61 -103t-74.5 -65.5t-113 -39.5t-169.5 -11q-137 0 -348 18z" />
    <glyph glyph-name="z" unicode="z" horiz-adv-x="1441" 
d="M51 0v283l633 489v4h-596v344h1284v-295l-600 -465v-4h619v-356h-1340z" />
    <glyph glyph-name="braceleft" unicode="{" horiz-adv-x="1024" 
d="M-14 365v344q35 0 62 4t55 16t46 32.5t29.5 56t11.5 83.5v273q0 136 80 212t213 76h451v-344h-113q-119 0 -119 -127v-205q0 -121 -50 -179t-171 -68v-4q121 -10 171 -68.5t50 -179.5v-205q0 -127 119 -127h113v-344h-451q-133 0 -213 76.5t-80 212.5v272
q0 48 -11.5 83.5t-29.5 56t-46 33t-55 16.5t-62 4z" />
    <glyph glyph-name="bar" unicode="|" horiz-adv-x="569" 
d="M113 -51v1564h344v-1564h-344z" />
    <glyph glyph-name="braceright" unicode="}" horiz-adv-x="1024" 
d="M1038 709v-344q-35 0 -62 -4t-55 -16.5t-46 -33t-29.5 -56t-11.5 -83.5v-272q0 -136 -80 -212.5t-213 -76.5h-451v344h113q119 0 119 127v205q0 121 50 179.5t171 68.5v4q-121 10 -171 68t-50 179v205q0 127 -119 127h-113v344h451q133 0 213 -76t80 -212v-273
q0 -48 11.5 -83.5t29.5 -56t46 -32.5t55 -16t62 -4z" />
    <glyph glyph-name="asciitilde" unicode="~" horiz-adv-x="1228" 
d="M215 297l-74 258q90 180 256 180q83 0 228 -65q152 -74 209 -74q38 0 73.5 23t56.5 49t50 71l73 -262q-23 -32 -38.5 -52t-41 -46.5t-49.5 -41t-57 -25.5t-70 -11q-52 0 -99 17t-109 51q-127 71 -236 71q-103 0 -172 -143z" />
    <glyph glyph-name="uni00A0" unicode="&#xa0;" horiz-adv-x="835" 
 />
    <glyph glyph-name="exclamdown" unicode="&#xa1;" horiz-adv-x="835" 
d="M141 -342l62 899h434l57 -899h-553zM150 662v458h536v-458h-536z" />
    <glyph glyph-name="cent" unicode="&#xa2;" horiz-adv-x="1974" 
d="M903 291v555q-244 -23 -244 -275q0 -134 59 -203.5t185 -76.5zM903 -264v223q-780 21 -780 606q0 579 780 600v195h123v-195q343 -8 528.5 -122t223.5 -373h-537q-2 45 -19.5 78t-49 52t-66 29.5t-80.5 16.5v-555q93 8 149.5 50t77.5 130h537q-11 -91 -41 -165
t-72.5 -125.5t-102 -91t-120.5 -63.5t-137 -39t-144 -21t-147 -7v-223h-123z" />
    <glyph glyph-name="sterling" unicode="&#xa3;" horiz-adv-x="1974" 
d="M160 608v246h125q-60 99 -60 197q0 411 770 411q191 0 333 -24.5t231 -67.5t143.5 -109t75 -139.5t20.5 -169.5v-43h-602q0 105 -41 146q-39 39 -145 39q-88 0 -129 -29t-41 -88q0 -37 22 -123h287v-246h-285q-11 -53 -49 -108t-131 -127l4 -4q88 61 225 61
q38 0 213.5 -20.5t231.5 -20.5q91 0 181.5 32.5t160.5 86.5l153 -389q-115 -78 -228 -119t-251 -41q-112 0 -262 22.5t-271 45t-161 22.5q-204 0 -336 -90l-207 346q93 63 136.5 125.5t43.5 151.5v26h-157z" />
    <glyph glyph-name="currency" unicode="&#xa4;" horiz-adv-x="1228" 
d="M356 711q0 -122 75.5 -196.5t182.5 -74.5t182.5 74.5t75.5 196.5t-75.5 196t-182.5 74t-182.5 -74t-75.5 -196zM23 303l120 121q-82 130 -82 287q0 159 89 295l-127 124l176 168l123 -120q131 86 292 86q159 0 293 -86l123 120l176 -168l-125 -124q86 -134 86 -295
q0 -157 -82 -287l121 -121l-164 -180l-127 125q-136 -90 -301 -90q-168 0 -301 90l-127 -125z" />
    <glyph glyph-name="yen" unicode="&#xa5;" horiz-adv-x="1974" 
d="M698 0v172h-370v246h370v129h-370v246h204l-442 628h639l258 -614l258 614h639l-442 -628h205v-246h-371v-129h371v-246h-371v-172h-578z" />
    <glyph glyph-name="brokenbar" unicode="&#xa6;" horiz-adv-x="569" 
d="M113 -51v612h344v-612h-344zM113 901v612h344v-612h-344z" />
    <glyph glyph-name="section" unicode="&#xa7;" horiz-adv-x="1974" 
d="M1759 1063h-553q0 78 -78 108q-63 23 -196 23q-114 0 -156.5 -18t-42.5 -56q0 -49 53 -59l611 -111q136 -25 228 -56.5t160.5 -81t100 -120.5t31.5 -170q0 -121 -49 -193.5t-142 -117.5q95 -81 95 -205q0 -79 -26.5 -143t-86 -117.5t-152.5 -89t-230.5 -55t-315.5 -19.5
q-778 0 -854 461h553q12 -87 78 -120.5t239 -33.5q51 0 89 3.5t71.5 12.5t51 26.5t17.5 43.5q0 60 -79 74l-664 133q-207 42 -331 149.5t-124 268.5q0 118 49 209.5t162 128.5q-59 82 -59 162q0 413 729 413q764 0 821 -450zM1337 569l-764 166q-41 -44 -41 -92
q0 -39 22 -61.5t77 -34.5l794 -166q31 51 31 84q0 36 -24.5 62t-94.5 42z" />
    <glyph glyph-name="dieresis" unicode="&#xa8;" horiz-adv-x="569" 
d="M-291 1243v270h496v-270h-496zM365 1243v270h495v-270h-495z" />
    <glyph glyph-name="copyright" unicode="&#xa9;" horiz-adv-x="1638" 
d="M987 608h225q-21 -158 -122.5 -240.5t-251.5 -82.5q-198 0 -315 122.5t-117 315.5q0 197 114 318.5t314 121.5q153 0 250 -80.5t120 -236.5h-217q-22 121 -166 121q-88 0 -135 -64t-47 -176q0 -107 51 -176.5t135 -69.5q71 0 114.5 31t47.5 96zM295 731q0 -124 41.5 -228
t112.5 -174t166.5 -108.5t203.5 -38.5t203.5 38.5t166.5 108.5t112.5 174t41.5 228t-41.5 228t-112.5 174t-166.5 108.5t-203.5 38.5t-203.5 -38.5t-166.5 -108.5t-112.5 -174t-41.5 -228zM37 731q0 159 62 304t166.5 249.5t249.5 166.5t304 62t304 -62t250 -166.5
t167 -249.5t62 -304t-62 -304t-167 -249.5t-250 -166.5t-304 -62t-304 62t-249.5 166.5t-166.5 249.5t-62 304z" />
    <glyph glyph-name="ordfeminine" unicode="&#xaa;" horiz-adv-x="1159" 
d="M436 1217h-381q13 81 47 127.5t97 72.5q109 45 417 45q95 0 166.5 -6t139 -22.5t110.5 -44t68.5 -73.5t25.5 -108v-342q0 -24 5.5 -46.5t11 -35t18.5 -39.5h-393q-9 51 -12 56q-99 -80 -355 -80q-204 0 -303.5 53.5t-99.5 181.5q0 153 176 193q42 9 106 16t115.5 10
t136 7t125.5 6q82 5 82 31q0 29 -38.5 44t-104.5 15q-140 0 -160 -61zM745 1024v29q-64 -12 -243 -29q-46 -3 -68 -18t-22 -45q0 -22 30 -39t80 -17q41 0 78 6t71 19t54 37t20 57z" />
    <glyph glyph-name="guillemotleft" unicode="&#xab;" horiz-adv-x="1402" 
d="M748 399v406l442 330v-344l-256 -189l256 -188v-344zM180 399v406l443 330v-344l-256 -189l256 -188v-344z" />
    <glyph glyph-name="logicalnot" unicode="&#xac;" horiz-adv-x="1228" 
d="M838 221v379h-742v295h1037v-674h-295z" />
    <glyph glyph-name="uni00AD" unicode="&#xad;" horiz-adv-x="985" 
d="M121 424v356h743v-356h-743z" />
    <glyph glyph-name="registered" unicode="&#xae;" horiz-adv-x="1638" 
d="M696 807h160q60 0 87.5 22.5t27.5 83.5q0 26 -14.5 43t-42 24t-49 9t-52.5 2h-117v-184zM934 315l-195 332h-43v-332h-196v836h317q89 0 153 -12.5t113 -41t73 -79.5t24 -125q0 -120 -60.5 -174.5t-171.5 -59.5l203 -344h-217zM295 731q0 -124 41.5 -228t112.5 -174
t166.5 -108.5t203.5 -38.5t203.5 38.5t166.5 108.5t112.5 174t41.5 228t-41.5 228t-112.5 174t-166.5 108.5t-203.5 38.5t-203.5 -38.5t-166.5 -108.5t-112.5 -174t-41.5 -228zM37 731q0 159 62 304t166.5 249.5t249.5 166.5t304 62t304 -62t250 -166.5t167 -249.5t62 -304
t-62 -304t-167 -249.5t-250 -166.5t-304 -62t-304 62t-249.5 166.5t-166.5 249.5t-62 304z" />
    <glyph glyph-name="macron" unicode="&#xaf;" horiz-adv-x="569" 
d="M-299 1243v270h1167v-270h-1167z" />
    <glyph glyph-name="degree" unicode="&#xb0;" horiz-adv-x="819" 
d="M268 1137q0 -59 42 -100.5t100 -41.5t99.5 41.5t41.5 100.5t-41.5 100t-99.5 41q-59 0 -100.5 -41.5t-41.5 -99.5zM84 1137q0 135 95.5 230t230.5 95t230 -95t95 -230t-95 -230.5t-230 -95.5t-230.5 95.5t-95.5 230.5z" />
    <glyph glyph-name="plusminus" unicode="&#xb1;" horiz-adv-x="1228" 
d="M467 850v186h295v-186h371v-295h-371v-186h-295v186h-371v295h371zM96 0v295h1037v-295h-1037z" />
    <glyph glyph-name="twosuperior" unicode="&#xb2;" horiz-adv-x="1284" 
d="M489 1057l306 63q39 6 39 47q0 62 -152 62q-36 0 -60.5 -1.5t-54.5 -9t-48.5 -21.5t-33.5 -39.5t-18 -61.5h-430q6 68 28.5 123t55 93t80 65.5t95.5 43.5t110 25.5t114.5 12.5t116.5 3q87 0 159 -5t143.5 -16.5t125 -33t96 -52t64.5 -76.5t22 -105q0 -47 -20 -86.5
t-51.5 -66t-74.5 -47.5t-83 -32.5t-84 -19.5l-336 -58q-103 -18 -166 -41v-4h772v-233h-1167q2 95 29 170.5t68 124t102.5 85.5t120 56.5t132.5 34.5z" />
    <glyph glyph-name="threesuperior" unicode="&#xb3;" horiz-adv-x="1284" 
d="M457 924v209h258q102 0 102 47q0 18 -11 30t-50.5 21.5t-106.5 9.5q-91 0 -119.5 -9t-48.5 -40h-422q6 77 47 130t118.5 83.5t179.5 43.5t243 13q317 0 450.5 -56.5t133.5 -186.5q0 -64 -37 -109t-147 -66v-4q210 -35 210 -200q0 -63 -28.5 -111.5t-93 -87.5t-181 -59.5
t-280.5 -20.5q-60 0 -104 1t-100.5 4.5t-98 9.5t-89 17t-81 26.5t-67 39t-55 52.5t-35.5 68.5t-17 86.5h413q3 -23 14.5 -35.5t37.5 -23.5q48 -25 159 -25q193 0 193 76q0 37 -36 51.5t-110 14.5h-241z" />
    <glyph glyph-name="acute" unicode="&#xb4;" horiz-adv-x="569" 
d="M-27 1231l187 295h620l-313 -295h-494z" />
    <glyph glyph-name="mu" unicode="&#xb5;" horiz-adv-x="1703" 
d="M1581 1120v-1120h-496v125h-4q-51 -81 -124.5 -125.5t-145.5 -44.5q-104 0 -172 82h-4v-438h-512v1521h512v-594q0 -202 196 -202q118 0 178 70t60 198v528h512z" />
    <glyph glyph-name="paragraph" unicode="&#xb6;" horiz-adv-x="1363" 
d="M473 -367v985q-228 0 -352.5 105t-124.5 313q0 104 28 181t73.5 123t115.5 74t142.5 38t164.5 10h787v-1829h-320v1596h-194v-1596h-320z" />
    <glyph glyph-name="periodcentered" unicode="&#xb7;" horiz-adv-x="835" 
d="M150 500q0 110 79 189t189 79t189 -79t79 -189t-79 -189.5t-189 -79.5t-189 79.5t-79 189.5z" />
    <glyph glyph-name="cedilla" unicode="&#xb8;" horiz-adv-x="569" 
d="M-29 -401l33 104q93 -22 170 -22q92 0 92 59q0 17 -22 28t-49 11q-26 0 -72 -17l-55 43l118 170h156l-53 -77q40 4 71 4q116 0 177 -41.5t61 -120.5q0 -182 -319 -182q-33 0 -64.5 2t-68.5 7.5t-56 9t-63.5 12t-55.5 10.5z" />
    <glyph glyph-name="onesuperior" unicode="&#xb9;" horiz-adv-x="888" 
d="M369 586v489h-283v234h57q128 3 194 35.5t99 117.5h314v-876h-381z" />
    <glyph glyph-name="ordmasculine" unicode="&#xba;" horiz-adv-x="1159" 
d="M410 1100q0 -68 43.5 -107t126.5 -39t126.5 39t43.5 107q0 57 -44 93t-126 36t-126 -36t-44 -93zM16 1100q0 188 133 275t431 87q297 0 430 -87t133 -275q0 -199 -132.5 -289t-430.5 -90q-299 0 -431.5 90t-132.5 289z" />
    <glyph glyph-name="guillemotright" unicode="&#xbb;" horiz-adv-x="1402" 
d="M213 791v344l442 -330v-406l-442 -329v344l256 188zM780 791v344l443 -330v-406l-443 -329v344l256 188z" />
    <glyph glyph-name="onequarter" unicode="&#xbc;" horiz-adv-x="2957" 
d="M1513 143v228l533 506h516v-508h168v-226h-168v-143h-369v143h-680zM2193 369v262l-286 -262h286zM369 586v489h-283v234h57q128 3 194 35.5t99 117.5h314v-876h-381zM602 -41l959 1503h262l-959 -1503h-262z" />
    <glyph glyph-name="onehalf" unicode="&#xbd;" horiz-adv-x="2957" 
d="M643 -41l959 1503h262l-959 -1503h-262zM410 586v489h-283v234h57q128 3 194 35.5t99 117.5h314v-876h-381zM2042 471l272 55q72 15 72 56q0 61 -152 61q-36 0 -60.5 -1.5t-54.5 -9t-48.5 -21t-33.5 -38.5t-18 -61h-430q6 68 28.5 123t55 92.5t80 65t96 43.5t110 25.5
t114 12.5t116.5 3q106 0 190 -7t165 -26t135.5 -50.5t87.5 -83.5t33 -122q0 -58 -29.5 -104t-79 -75t-99.5 -46t-106 -27l-336 -57q-101 -18 -165 -41v-5h772v-233h-1168q2 95 29 170.5t68.5 124t103 85.5t120 56.5t132.5 34.5z" />
    <glyph glyph-name="threequarters" unicode="&#xbe;" horiz-adv-x="2957" 
d="M907 -41l959 1503h262l-959 -1503h-262zM496 924v209h258q102 0 102 47q0 18 -11 30t-50.5 21.5t-106.5 9.5q-91 0 -119.5 -9t-48.5 -40h-422q6 77 47 130t118.5 83.5t179.5 43.5t243 13q317 0 450.5 -56.5t133.5 -186.5q0 -64 -37.5 -109t-147.5 -66v-4
q211 -35 211 -200q0 -63 -28.5 -111.5t-93 -87.5t-181 -59.5t-280.5 -20.5q-60 0 -104 1t-100.5 4.5t-98 9.5t-89 17t-81 26.5t-67 39t-55 52.5t-35.5 68.5t-17 86.5h413q3 -23 14.5 -35.5t36.5 -23.5q48 -25 160 -25q193 0 193 76q0 37 -36 51.5t-110 14.5h-241zM2355 369
v262l-287 -262h287zM1675 143v228l533 506h516v-508h168v-226h-168v-143h-369v143h-680z" />
    <glyph glyph-name="questiondown" unicode="&#xbf;" horiz-adv-x="1744" 
d="M1128 158h578q-20 -150 -67.5 -251.5t-137.5 -166.5q-95 -68 -249.5 -100.5t-391.5 -32.5q-215 0 -373 31t-251 89.5t-137 134.5t-44 173q0 44 5 77.5t21.5 71.5t44.5 68t77 60t116 55q136 50 197 77t82.5 45t30.5 46h524q-1 -39 -3.5 -62.5t-10 -53t-22 -49t-39.5 -43
t-62 -42.5t-90 -40t-123 -42q-88 -27 -123 -61t-35 -87t53.5 -91t171.5 -38q258 0 258 232zM1159 1120v-458h-536v458h536z" />
    <glyph glyph-name="Agrave" unicode="&#xc0;" horiz-adv-x="1818" 
d="M1083 524l-172 496h-4l-172 -496h348zM-68 0l623 1462h709l622 -1462h-614l-62 168h-602l-61 -168h-615zM727 1573l-313 295h620l187 -295h-494z" />
    <glyph glyph-name="Aacute" unicode="&#xc1;" horiz-adv-x="1818" 
d="M1083 524l-172 496h-4l-172 -496h348zM-68 0l623 1462h709l622 -1462h-614l-62 168h-602l-61 -168h-615zM598 1573l186 295h621l-313 -295h-494z" />
    <glyph glyph-name="Acircumflex" unicode="&#xc2;" horiz-adv-x="1818" 
d="M1083 524l-172 496h-4l-172 -496h348zM-68 0l623 1462h709l622 -1462h-614l-62 168h-602l-61 -168h-615zM225 1573l318 295h733l317 -295h-571l-139 156l-140 -156h-518z" />
    <glyph glyph-name="Atilde" unicode="&#xc3;" horiz-adv-x="1818" 
d="M1083 524l-172 496h-4l-172 -496h348zM-68 0l623 1462h709l622 -1462h-614l-62 168h-602l-61 -168h-615zM1290 1868h217q-35 -163 -117 -241.5t-192 -78.5q-55 0 -299.5 49.5t-286.5 49.5q-53 0 -82 -60h-219q88 318 334 318q45 0 291 -50q237 -49 266 -49q63 0 88 62z
" />
    <glyph glyph-name="Adieresis" unicode="&#xc4;" horiz-adv-x="1818" 
d="M1083 524l-172 496h-4l-172 -496h348zM-68 0l623 1462h709l622 -1462h-614l-62 168h-602l-61 -168h-615zM334 1585v270h495v-270h-495zM989 1585v270h496v-270h-496z" />
    <glyph glyph-name="Aring" unicode="&#xc5;" horiz-adv-x="1818" 
d="M1083 524l-172 496h-4l-172 -496h348zM-68 0l623 1462h709l622 -1462h-614l-62 168h-602l-61 -168h-615zM627 1788q0 117 82.5 200t199.5 83t200 -83t83 -200t-83 -200t-200 -83t-199.5 83t-82.5 200zM786 1788q0 -51 36 -87t87 -36t87 36t36 87t-36 87t-87 36t-87 -36
t-36 -87z" />
    <glyph glyph-name="AE" unicode="&#xc6;" horiz-adv-x="2387" 
d="M-33 0l670 1462h1671v-356h-713v-197h684v-356h-684v-197h723v-356h-1235v246h-417l-95 -246h-604zM1083 578v540h-92l-203 -540h295z" />
    <glyph glyph-name="Ccedilla" unicode="&#xc7;" horiz-adv-x="2086" 
d="M1372 569h651q-30 -156 -86.5 -267.5t-158.5 -186.5q-219 -164 -695 -164l-34 -53q40 4 71 4q116 0 177 -41.5t61 -120.5q0 -182 -320 -182q-33 0 -64.5 2t-67.5 7.5t-56 9t-63.5 12t-55.5 10.5l33 104q94 -22 170 -22q92 0 92 59q0 17 -22 28t-50 11q-25 0 -71 -17
l-56 43l101 146q-86 3 -161 12t-166 32t-164.5 58t-145 95t-120 138.5t-78.5 192t-30 252.5q0 157 38.5 281.5t96.5 205t150 139t173 88t192.5 46t182 19.5t167.5 3q67 0 123 -2t129.5 -10t134.5 -21t131 -36.5t125.5 -55.5t110.5 -79.5t94.5 -106.5t69.5 -139t42 -174h-651
q-7 44 -24.5 84.5t-51.5 81.5t-94 65.5t-139 24.5q-385 0 -385 -414q0 -214 94.5 -314t261.5 -100q138 0 220.5 60.5t117.5 191.5z" />
    <glyph glyph-name="Egrave" unicode="&#xc8;" horiz-adv-x="1744" 
d="M141 0v1462h1555v-356h-977v-197h907v-356h-907v-197h977v-356h-1555zM731 1573l-313 295h620l187 -295h-494z" />
    <glyph glyph-name="Eacute" unicode="&#xc9;" horiz-adv-x="1744" 
d="M141 0v1462h1555v-356h-977v-197h907v-356h-907v-197h977v-356h-1555zM602 1573l186 295h621l-313 -295h-494z" />
    <glyph glyph-name="Ecircumflex" unicode="&#xca;" horiz-adv-x="1744" 
d="M141 0v1462h1555v-356h-977v-197h907v-356h-907v-197h977v-356h-1555zM229 1573l318 295h733l317 -295h-571l-139 156l-139 -156h-519z" />
    <glyph glyph-name="Edieresis" unicode="&#xcb;" horiz-adv-x="1744" 
d="M141 0v1462h1555v-356h-977v-197h907v-356h-907v-197h977v-356h-1555zM338 1585v270h496v-270h-496zM993 1585v270h496v-270h-496z" />
    <glyph glyph-name="Igrave" unicode="&#xcc;" horiz-adv-x="872" 
d="M147 0v1462h578v-1462h-578zM254 1573l-313 295h620l187 -295h-494z" />
    <glyph glyph-name="Iacute" unicode="&#xcd;" horiz-adv-x="872" 
d="M147 0v1462h578v-1462h-578zM125 1573l186 295h621l-314 -295h-493z" />
    <glyph glyph-name="Icircumflex" unicode="&#xce;" horiz-adv-x="872" 
d="M147 0v1462h578v-1462h-578zM-248 1573l318 295h733l317 -295h-571l-139 156l-140 -156h-518z" />
    <glyph glyph-name="Idieresis" unicode="&#xcf;" horiz-adv-x="872" 
d="M147 0v1462h578v-1462h-578zM-139 1585v270h495v-270h-495zM516 1585v270h496v-270h-496z" />
    <glyph glyph-name="Eth" unicode="&#xd0;" horiz-adv-x="2086" 
d="M141 0v623h-141v258h141v581h1137q371 0 558 -176.5t187 -554.5t-187 -554.5t-558 -176.5h-1137zM1090 623h-371v-254h332q193 0 281.5 91.5t88.5 270.5t-88.5 271t-281.5 92h-332v-213h371v-258z" />
    <glyph glyph-name="Ntilde" unicode="&#xd1;" horiz-adv-x="2086" 
d="M141 0v1462h660l585 -811h7v811h553v-1462h-633l-615 819h-4v-819h-553zM1425 1868h217q-35 -163 -117 -241.5t-192 -78.5q-55 0 -299 49.5t-286 49.5q-53 0 -82 -60h-220q88 318 334 318q45 0 291 -50q237 -49 266 -49q63 0 88 62z" />
    <glyph glyph-name="Ograve" unicode="&#xd2;" horiz-adv-x="2125" 
d="M63 731q0 157 38.5 281.5t96.5 205t150 139t173 88t192.5 46t182 19.5t167.5 3t167.5 -3t182 -19.5t192.5 -46t172.5 -88t149.5 -139t96.5 -205t38.5 -281.5t-38.5 -281.5t-96.5 -205t-149.5 -139t-172.5 -88t-192.5 -46t-182 -19.5t-167.5 -3t-167.5 3t-182 19.5
t-192.5 46t-173 88t-150 139t-96.5 205t-38.5 281.5zM678 731q0 -414 385 -414t385 414t-385 414t-385 -414zM881 1573l-314 295h621l186 -295h-493z" />
    <glyph glyph-name="Oacute" unicode="&#xd3;" horiz-adv-x="2125" 
d="M63 731q0 157 38.5 281.5t96.5 205t150 139t173 88t192.5 46t182 19.5t167.5 3t167.5 -3t182 -19.5t192.5 -46t172.5 -88t149.5 -139t96.5 -205t38.5 -281.5t-38.5 -281.5t-96.5 -205t-149.5 -139t-172.5 -88t-192.5 -46t-182 -19.5t-167.5 -3t-167.5 3t-182 19.5
t-192.5 46t-173 88t-150 139t-96.5 205t-38.5 281.5zM678 731q0 -414 385 -414t385 414t-385 414t-385 -414zM752 1573l186 295h621l-314 -295h-493z" />
    <glyph glyph-name="Ocircumflex" unicode="&#xd4;" horiz-adv-x="2125" 
d="M63 731q0 157 38.5 281.5t96.5 205t150 139t173 88t192.5 46t182 19.5t167.5 3t167.5 -3t182 -19.5t192.5 -46t172.5 -88t149.5 -139t96.5 -205t38.5 -281.5t-38.5 -281.5t-96.5 -205t-149.5 -139t-172.5 -88t-192.5 -46t-182 -19.5t-167.5 -3t-167.5 3t-182 19.5
t-192.5 46t-173 88t-150 139t-96.5 205t-38.5 281.5zM678 731q0 -414 385 -414t385 414t-385 414t-385 -414zM379 1573l317 295h734l317 -295h-571l-140 156l-139 -156h-518z" />
    <glyph glyph-name="Otilde" unicode="&#xd5;" horiz-adv-x="2125" 
d="M63 731q0 157 38.5 281.5t96.5 205t150 139t173 88t192.5 46t182 19.5t167.5 3t167.5 -3t182 -19.5t192.5 -46t172.5 -88t149.5 -139t96.5 -205t38.5 -281.5t-38.5 -281.5t-96.5 -205t-149.5 -139t-172.5 -88t-192.5 -46t-182 -19.5t-167.5 -3t-167.5 3t-182 19.5
t-192.5 46t-173 88t-150 139t-96.5 205t-38.5 281.5zM678 731q0 -414 385 -414t385 414t-385 414t-385 -414zM1444 1868h217q-35 -163 -117 -241.5t-192 -78.5q-55 0 -299.5 49.5t-286.5 49.5q-53 0 -82 -60h-219q88 318 334 318q45 0 291 -50q237 -49 266 -49q63 0 88 62z
" />
    <glyph glyph-name="Odieresis" unicode="&#xd6;" horiz-adv-x="2125" 
d="M63 731q0 157 38.5 281.5t96.5 205t150 139t173 88t192.5 46t182 19.5t167.5 3t167.5 -3t182 -19.5t192.5 -46t172.5 -88t149.5 -139t96.5 -205t38.5 -281.5t-38.5 -281.5t-96.5 -205t-149.5 -139t-172.5 -88t-192.5 -46t-182 -19.5t-167.5 -3t-167.5 3t-182 19.5
t-192.5 46t-173 88t-150 139t-96.5 205t-38.5 281.5zM678 731q0 -414 385 -414t385 414t-385 414t-385 -414zM487 1585v270h496v-270h-496zM1143 1585v270h495v-270h-495z" />
    <glyph glyph-name="multiply" unicode="&#xd7;" horiz-adv-x="1228" 
d="M408 518l-302 299l207 209l301 -297l299 297l209 -209l-299 -299l299 -299l-209 -209l-299 297l-301 -297l-207 209z" />
    <glyph glyph-name="Oslash" unicode="&#xd8;" horiz-adv-x="2125" 
d="M700 565l635 492q-95 88 -272 88q-385 0 -385 -414q0 -95 22 -166zM1425 897l-634 -491q96 -89 272 -89q385 0 385 414q0 98 -23 166zM53 63l183 142q-173 191 -173 526q0 157 38.5 281.5t96.5 205t150 139t173 88t192.5 46t182 19.5t167.5 3q90 0 161 -3.5t169 -16
t189 -42t167 -75.5l213 166l111 -145l-181 -140q170 -195 170 -526q0 -157 -38.5 -281.5t-96.5 -205t-149.5 -139t-172.5 -88t-192.5 -46t-182 -19.5t-167.5 -3q-90 0 -161 3.5t-169 16t-189 42t-167 75.5l-215 -166z" />
    <glyph glyph-name="Ugrave" unicode="&#xd9;" horiz-adv-x="1970" 
d="M111 555v907h577v-884q0 -135 74.5 -191.5t222.5 -56.5t222.5 56.5t74.5 191.5v884h578v-907q0 -173 -52 -290.5t-164 -187t-270.5 -99t-388.5 -29.5t-388.5 29.5t-270 99t-163.5 186.5t-52 291zM803 1573l-314 295h621l186 -295h-493z" />
    <glyph glyph-name="Uacute" unicode="&#xda;" horiz-adv-x="1970" 
d="M111 555v907h577v-884q0 -135 74.5 -191.5t222.5 -56.5t222.5 56.5t74.5 191.5v884h578v-907q0 -173 -52 -290.5t-164 -187t-270.5 -99t-388.5 -29.5t-388.5 29.5t-270 99t-163.5 186.5t-52 291zM674 1573l186 295h621l-314 -295h-493z" />
    <glyph glyph-name="Ucircumflex" unicode="&#xdb;" horiz-adv-x="1970" 
d="M111 555v907h577v-884q0 -135 74.5 -191.5t222.5 -56.5t222.5 56.5t74.5 191.5v884h578v-907q0 -173 -52 -290.5t-164 -187t-270.5 -99t-388.5 -29.5t-388.5 29.5t-270 99t-163.5 186.5t-52 291zM301 1573l317 295h734l317 -295h-571l-140 156l-139 -156h-518z" />
    <glyph glyph-name="Udieresis" unicode="&#xdc;" horiz-adv-x="1970" 
d="M111 555v907h577v-884q0 -135 74.5 -191.5t222.5 -56.5t222.5 56.5t74.5 191.5v884h578v-907q0 -173 -52 -290.5t-164 -187t-270.5 -99t-388.5 -29.5t-388.5 29.5t-270 99t-163.5 186.5t-52 291zM410 1585v270h495v-270h-495zM1065 1585v270h496v-270h-496z" />
    <glyph glyph-name="Yacute" unicode="&#xdd;" horiz-adv-x="1703" 
d="M563 0v412l-649 1050h659l279 -573l278 573h660l-649 -1050v-412h-578zM541 1573l186 295h621l-314 -295h-493z" />
    <glyph glyph-name="Thorn" unicode="&#xde;" horiz-adv-x="1933" 
d="M141 0v1462h578v-192h614q298 0 429.5 -128t131.5 -382q0 -109 -30 -197t-94 -157t-174 -106.5t-259 -37.5h-618v-262h-578zM719 926v-308h373q108 0 154 36t46 116q0 84 -46 120t-154 36h-373z" />
    <glyph glyph-name="germandbls" unicode="&#xdf;" horiz-adv-x="1818" 
d="M635 0h-512v987q0 148 51.5 250t159 162.5t258 87t362.5 26.5q354 0 531.5 -101t177.5 -294q0 -112 -53 -180t-150 -82v-4q158 -31 227.5 -125t69.5 -250q0 -117 -38 -207.5t-98.5 -145t-147 -89t-173 -47.5t-186.5 -13q-110 0 -215 15.5t-166 34.5v344q208 -25 256 -25
q232 0 232 168q0 86 -66.5 124t-214.5 38h-158v270h142q90 0 138 30.5t48 88.5q0 119 -195 119q-165 0 -222.5 -62t-57.5 -227v-893z" />
    <glyph glyph-name="agrave" unicode="&#xe0;" 
d="M643 780h-512q24 117 75.5 190t145.5 117q171 78 582 78q395 0 562 -101t167 -349v-541q0 -104 47 -174h-524q-16 53 -19 111q-87 -80 -222.5 -118t-338.5 -38q-274 0 -417.5 87t-143.5 292q0 160 124.5 250t399.5 102l432 21q76 4 107 25t31 67q0 54 -63 81t-175 27
q-49 0 -87 -5t-75.5 -17.5t-62 -39t-33.5 -65.5zM1151 461v49q-87 -18 -414 -47q-72 -6 -105.5 -32t-33.5 -79q0 -60 48.5 -93.5t141.5 -33.5q71 0 130.5 10.5t114.5 35t86.5 73t31.5 117.5zM709 1231l-314 295h621l186 -295h-493z" />
    <glyph glyph-name="aacute" unicode="&#xe1;" 
d="M643 780h-512q24 117 75.5 190t145.5 117q171 78 582 78q395 0 562 -101t167 -349v-541q0 -104 47 -174h-524q-16 53 -19 111q-87 -80 -222.5 -118t-338.5 -38q-274 0 -417.5 87t-143.5 292q0 160 124.5 250t399.5 102l432 21q76 4 107 25t31 67q0 54 -63 81t-175 27
q-49 0 -87 -5t-75.5 -17.5t-62 -39t-33.5 -65.5zM1151 461v49q-87 -18 -414 -47q-72 -6 -105.5 -32t-33.5 -79q0 -60 48.5 -93.5t141.5 -33.5q71 0 130.5 10.5t114.5 35t86.5 73t31.5 117.5zM580 1231l186 295h620l-313 -295h-493z" />
    <glyph glyph-name="acircumflex" unicode="&#xe2;" 
d="M643 780h-512q24 117 75.5 190t145.5 117q171 78 582 78q395 0 562 -101t167 -349v-541q0 -104 47 -174h-524q-16 53 -19 111q-87 -80 -222.5 -118t-338.5 -38q-274 0 -417.5 87t-143.5 292q0 160 124.5 250t399.5 102l432 21q76 4 107 25t31 67q0 54 -63 81t-175 27
q-49 0 -87 -5t-75.5 -17.5t-62 -39t-33.5 -65.5zM1151 461v49q-87 -18 -414 -47q-72 -6 -105.5 -32t-33.5 -79q0 -60 48.5 -93.5t141.5 -33.5q71 0 130.5 10.5t114.5 35t86.5 73t31.5 117.5zM207 1231l317 295h733l318 -295h-571l-140 155l-139 -155h-518z" />
    <glyph glyph-name="atilde" unicode="&#xe3;" 
d="M643 780h-512q24 117 75.5 190t145.5 117q171 78 582 78q395 0 562 -101t167 -349v-541q0 -104 47 -174h-524q-16 53 -19 111q-87 -80 -222.5 -118t-338.5 -38q-274 0 -417.5 87t-143.5 292q0 160 124.5 250t399.5 102l432 21q76 4 107 25t31 67q0 54 -63 81t-175 27
q-49 0 -87 -5t-75.5 -17.5t-62 -39t-33.5 -65.5zM1151 461v49q-87 -18 -414 -47q-72 -6 -105.5 -32t-33.5 -79q0 -60 48.5 -93.5t141.5 -33.5q71 0 130.5 10.5t114.5 35t86.5 73t31.5 117.5zM1272 1526h217q-35 -163 -117 -241.5t-192 -78.5q-55 0 -299.5 49.5t-286.5 49.5
q-53 0 -82 -60h-219q88 318 334 318q45 0 291 -50q237 -49 266 -49q63 0 88 62z" />
    <glyph glyph-name="adieresis" unicode="&#xe4;" 
d="M643 780h-512q24 117 75.5 190t145.5 117q171 78 582 78q395 0 562 -101t167 -349v-541q0 -104 47 -174h-524q-16 53 -19 111q-87 -80 -222.5 -118t-338.5 -38q-274 0 -417.5 87t-143.5 292q0 160 124.5 250t399.5 102l432 21q76 4 107 25t31 67q0 54 -63 81t-175 27
q-49 0 -87 -5t-75.5 -17.5t-62 -39t-33.5 -65.5zM1151 461v49q-87 -18 -414 -47q-72 -6 -105.5 -32t-33.5 -79q0 -60 48.5 -93.5t141.5 -33.5q71 0 130.5 10.5t114.5 35t86.5 73t31.5 117.5zM315 1243v270h496v-270h-496zM971 1243v270h495v-270h-495z" />
    <glyph glyph-name="aring" unicode="&#xe5;" 
d="M643 780h-512q24 117 75.5 190t145.5 117q171 78 582 78q395 0 562 -101t167 -349v-541q0 -104 47 -174h-524q-16 53 -19 111q-87 -80 -222.5 -118t-338.5 -38q-274 0 -417.5 87t-143.5 292q0 160 124.5 250t399.5 102l432 21q76 4 107 25t31 67q0 54 -63 81t-175 27
q-49 0 -87 -5t-75.5 -17.5t-62 -39t-33.5 -65.5zM1151 461v49q-87 -18 -414 -47q-72 -6 -105.5 -32t-33.5 -79q0 -60 48.5 -93.5t141.5 -33.5q71 0 130.5 10.5t114.5 35t86.5 73t31.5 117.5zM608 1507q0 117 83 200t200 83t200 -83t83 -200t-83 -199.5t-200 -82.5t-200 82.5
t-83 199.5zM768 1507q0 -51 36 -87t87 -36t87 36t36 87t-36 87t-87 36t-87 -36t-36 -87z" />
    <glyph glyph-name="ae" unicode="&#xe6;" horiz-adv-x="2387" 
d="M1008 461v41q-22 -11 -30.5 -14.5t-35.5 -9.5t-63 -9l-228 -18q-110 -10 -110 -99q0 -121 198 -121q50 0 96 13t85.5 39t63.5 72t24 106zM1837 336h485q-37 -110 -104.5 -187.5t-158 -118t-185.5 -58t-209 -17.5q-309 0 -457 151q-69 -66 -226.5 -108.5t-324.5 -42.5
q-317 0 -464.5 86.5t-147.5 294.5q0 64 20 116.5t65.5 98.5t127.5 75.5t197 37.5l401 28q75 5 108 23.5t33 70.5q0 31 -17 52t-50 30t-63.5 12t-73.5 3q-50 0 -86.5 -8t-55 -18.5t-30.5 -28.5t-15.5 -29.5t-5.5 -28.5h-483q24 233 250 328q160 67 434 67q314 0 438 -106
q84 54 178 80t219 26q157 0 282 -38.5t217.5 -116.5t142 -203t49.5 -291v-72h-926q21 -206 239 -206q86 0 125.5 21t71.5 77zM1401 678h465q-9 91 -75 148t-157 57q-92 0 -158 -57t-75 -148z" />
    <glyph glyph-name="ccedilla" unicode="&#xe7;" 
d="M1188 473h536q-11 -94 -42.5 -170.5t-75.5 -129t-106.5 -92t-125.5 -63t-142.5 -38t-147.5 -19.5t-150 -6l-39 -57q40 4 72 4q116 0 176.5 -41.5t60.5 -120.5q0 -182 -319 -182q-33 0 -64.5 2t-67.5 7.5t-56 9t-63.5 12t-55.5 10.5l32 104q94 -22 170 -22q92 0 92 59
q0 17 -22 28t-49 11q-26 0 -72 -17l-55 43l108 154q-721 40 -721 604q0 602 840 602q148 0 265.5 -15.5t216 -51.5t167 -93t113.5 -140.5t61 -194.5h-536q-8 96 -96 141q-66 35 -185 35q-161 0 -235 -77t-74 -200q0 -132 78 -207t227 -75q116 0 188 41.5t97 144.5z" />
    <glyph glyph-name="egrave" unicode="&#xe8;" 
d="M586 698h610q-7 91 -89 144t-214 53q-136 0 -211.5 -46.5t-95.5 -150.5zM1161 336h545q-60 -180 -256 -279q-202 -102 -543 -102q-411 0 -628.5 151.5t-217.5 454.5q0 289 210 446.5t589 157.5q155 0 280.5 -21.5t235.5 -73t183 -133.5t114 -207.5t39 -289.5h-1126
q0 -32 17.5 -65.5t52 -65t97 -51.5t142.5 -20q100 0 162.5 23t103.5 75zM709 1231l-314 295h621l186 -295h-493z" />
    <glyph glyph-name="eacute" unicode="&#xe9;" 
d="M586 698h610q-7 91 -89 144t-214 53q-136 0 -211.5 -46.5t-95.5 -150.5zM1161 336h545q-60 -180 -256 -279q-202 -102 -543 -102q-411 0 -628.5 151.5t-217.5 454.5q0 289 210 446.5t589 157.5q155 0 280.5 -21.5t235.5 -73t183 -133.5t114 -207.5t39 -289.5h-1126
q0 -32 17.5 -65.5t52 -65t97 -51.5t142.5 -20q100 0 162.5 23t103.5 75zM580 1231l186 295h620l-313 -295h-493z" />
    <glyph glyph-name="ecircumflex" unicode="&#xea;" 
d="M586 698h610q-7 91 -89 144t-214 53q-136 0 -211.5 -46.5t-95.5 -150.5zM1161 336h545q-60 -180 -256 -279q-202 -102 -543 -102q-411 0 -628.5 151.5t-217.5 454.5q0 289 210 446.5t589 157.5q155 0 280.5 -21.5t235.5 -73t183 -133.5t114 -207.5t39 -289.5h-1126
q0 -32 17.5 -65.5t52 -65t97 -51.5t142.5 -20q100 0 162.5 23t103.5 75zM207 1231l317 295h733l318 -295h-571l-140 155l-139 -155h-518z" />
    <glyph glyph-name="edieresis" unicode="&#xeb;" 
d="M586 698h610q-7 91 -89 144t-214 53q-136 0 -211.5 -46.5t-95.5 -150.5zM1161 336h545q-60 -180 -256 -279q-202 -102 -543 -102q-411 0 -628.5 151.5t-217.5 454.5q0 289 210 446.5t589 157.5q155 0 280.5 -21.5t235.5 -73t183 -133.5t114 -207.5t39 -289.5h-1126
q0 -32 17.5 -65.5t52 -65t97 -51.5t142.5 -20q100 0 162.5 23t103.5 75zM315 1243v270h496v-270h-496zM971 1243v270h495v-270h-495z" />
    <glyph glyph-name="igrave" unicode="&#xec;" horiz-adv-x="757" 
d="M123 0v1120h512v-1120h-512zM197 1231l-314 295h621l186 -295h-493z" />
    <glyph glyph-name="iacute" unicode="&#xed;" horiz-adv-x="757" 
d="M123 0v1120h512v-1120h-512zM68 1231l186 295h620l-313 -295h-493z" />
    <glyph glyph-name="icircumflex" unicode="&#xee;" horiz-adv-x="757" 
d="M123 0v1120h512v-1120h-512zM-305 1231l317 295h733l318 -295h-571l-140 155l-139 -155h-518z" />
    <glyph glyph-name="idieresis" unicode="&#xef;" horiz-adv-x="757" 
d="M123 0v1120h512v-1120h-512zM-197 1243v270h496v-270h-496zM459 1243v270h495v-270h-495z" />
    <glyph glyph-name="eth" unicode="&#xf0;" 
d="M598 485q0 -80 75 -139t218 -59q145 0 219 59t74 139q0 78 -74.5 137.5t-218.5 59.5q-143 0 -218 -59.5t-75 -137.5zM332 1184l211 96q-92 29 -230 57l256 265q226 -34 432 -115l265 119l180 -107l-240 -108q239 -136 376.5 -341.5t137.5 -471.5q0 -326 -198 -474.5
t-631 -148.5q-427 0 -628.5 133t-201.5 397q0 265 182 397t511 132q240 0 372 -101l4 5q-120 169 -358 276l-303 -137z" />
    <glyph glyph-name="ntilde" unicode="&#xf1;" horiz-adv-x="1703" 
d="M123 0v1120h495v-139h5q47 64 170.5 117t291.5 53q109 0 197.5 -25t156 -76.5t105 -137t37.5 -199.5v-713h-512v580q0 103 -51.5 152.5t-145.5 49.5q-107 0 -172 -66.5t-65 -199.5v-516h-512zM1233 1526h217q-35 -163 -117 -241.5t-192 -78.5q-55 0 -299.5 49.5
t-286.5 49.5q-53 0 -82 -60h-219q88 318 334 318q45 0 291 -50q237 -49 266 -49q63 0 88 62z" />
    <glyph glyph-name="ograve" unicode="&#xf2;" 
d="M598 561q0 -137 71 -205.5t222 -68.5q153 0 223 68t70 206q0 135 -70.5 204t-222.5 69q-293 0 -293 -273zM61 561q0 311 199.5 457.5t630.5 146.5t630 -146.5t199 -457.5q0 -312 -199 -459t-630 -147t-630.5 147t-199.5 459zM709 1231l-314 295h621l186 -295h-493z" />
    <glyph glyph-name="oacute" unicode="&#xf3;" 
d="M598 561q0 -137 71 -205.5t222 -68.5q153 0 223 68t70 206q0 135 -70.5 204t-222.5 69q-293 0 -293 -273zM61 561q0 311 199.5 457.5t630.5 146.5t630 -146.5t199 -457.5q0 -312 -199 -459t-630 -147t-630.5 147t-199.5 459zM580 1231l186 295h620l-313 -295h-493z" />
    <glyph glyph-name="ocircumflex" unicode="&#xf4;" 
d="M598 561q0 -137 71 -205.5t222 -68.5q153 0 223 68t70 206q0 135 -70.5 204t-222.5 69q-293 0 -293 -273zM61 561q0 311 199.5 457.5t630.5 146.5t630 -146.5t199 -457.5q0 -312 -199 -459t-630 -147t-630.5 147t-199.5 459zM207 1231l317 295h733l318 -295h-571
l-140 155l-139 -155h-518z" />
    <glyph glyph-name="otilde" unicode="&#xf5;" 
d="M598 561q0 -137 71 -205.5t222 -68.5q153 0 223 68t70 206q0 135 -70.5 204t-222.5 69q-293 0 -293 -273zM61 561q0 311 199.5 457.5t630.5 146.5t630 -146.5t199 -457.5q0 -312 -199 -459t-630 -147t-630.5 147t-199.5 459zM1272 1526h217q-35 -163 -117 -241.5
t-192 -78.5q-55 0 -299.5 49.5t-286.5 49.5q-53 0 -82 -60h-219q88 318 334 318q45 0 291 -50q237 -49 266 -49q63 0 88 62z" />
    <glyph glyph-name="odieresis" unicode="&#xf6;" 
d="M598 561q0 -137 71 -205.5t222 -68.5q153 0 223 68t70 206q0 135 -70.5 204t-222.5 69q-293 0 -293 -273zM61 561q0 311 199.5 457.5t630.5 146.5t630 -146.5t199 -457.5q0 -312 -199 -459t-630 -147t-630.5 147t-199.5 459zM315 1243v270h496v-270h-496zM971 1243v270
h495v-270h-495z" />
    <glyph glyph-name="divide" unicode="&#xf7;" horiz-adv-x="1228" 
d="M96 371v295h1037v-295h-1037zM399 961q0 89 63 152t152 63t152 -63t63 -152t-63 -152.5t-152 -63.5t-152 63.5t-63 152.5zM399 76q0 89 63 152t152 63t152 -63t63 -152t-63 -152t-152 -63t-152 63t-63 152z" />
    <glyph glyph-name="oslash" unicode="&#xf8;" 
d="M614 453l465 338q-70 43 -188 43q-293 0 -293 -273q0 -64 16 -108zM1169 670l-467 -338q62 -45 189 -45q153 0 223 68t70 206q0 63 -15 109zM39 33l164 121q-142 145 -142 407q0 311 199.5 457.5t630.5 146.5q364 0 559 -104l201 147l92 -123l-164 -118
q141 -144 141 -406q0 -312 -199 -459t-630 -147q-365 0 -561 106l-205 -149z" />
    <glyph glyph-name="ugrave" unicode="&#xf9;" horiz-adv-x="1703" 
d="M1581 1120v-1120h-496v125h-4q-47 -64 -171 -117t-292 -53q-87 0 -160.5 15.5t-136 49.5t-106 84.5t-68 124t-24.5 164.5v727h512v-594q0 -202 196 -202q118 0 178 70t60 198v528h512zM670 1231l-314 295h621l186 -295h-493z" />
    <glyph glyph-name="uacute" unicode="&#xfa;" horiz-adv-x="1703" 
d="M1581 1120v-1120h-496v125h-4q-47 -64 -171 -117t-292 -53q-87 0 -160.5 15.5t-136 49.5t-106 84.5t-68 124t-24.5 164.5v727h512v-594q0 -202 196 -202q118 0 178 70t60 198v528h512zM541 1231l186 295h621l-314 -295h-493z" />
    <glyph glyph-name="ucircumflex" unicode="&#xfb;" horiz-adv-x="1703" 
d="M1581 1120v-1120h-496v125h-4q-47 -64 -171 -117t-292 -53q-87 0 -160.5 15.5t-136 49.5t-106 84.5t-68 124t-24.5 164.5v727h512v-594q0 -202 196 -202q118 0 178 70t60 198v528h512zM168 1231l317 295h734l317 -295h-571l-140 155l-139 -155h-518z" />
    <glyph glyph-name="udieresis" unicode="&#xfc;" horiz-adv-x="1703" 
d="M1581 1120v-1120h-496v125h-4q-47 -64 -171 -117t-292 -53q-87 0 -160.5 15.5t-136 49.5t-106 84.5t-68 124t-24.5 164.5v727h512v-594q0 -202 196 -202q118 0 178 70t60 198v528h512zM276 1243v270h496v-270h-496zM932 1243v270h495v-270h-495z" />
    <glyph glyph-name="yacute" unicode="&#xfd;" horiz-adv-x="1478" 
d="M129 -383v332q61 -6 127 -6q88 0 124.5 14t65.5 72l29 61l-520 1030h537l247 -575l248 575h537l-629 -1302q-33 -66 -61 -103t-74.5 -65.5t-113 -39.5t-169.5 -11q-137 0 -348 18zM428 1231l186 295h621l-313 -295h-494z" />
    <glyph glyph-name="thorn" unicode="&#xfe;" 
d="M123 -401v1914h512v-520h4q131 158 444 158q102 0 194 -22t173.5 -69t141 -116t94 -169.5t34.5 -221.5t-34.5 -221.5t-94 -169.5t-141 -116t-173.5 -69t-194 -22q-313 0 -444 158h-4v-514h-512zM635 553q0 -254 283 -254q133 0 205.5 71t72.5 183q0 117 -69 185.5
t-212 68.5q-280 0 -280 -254z" />
    <glyph glyph-name="ydieresis" unicode="&#xff;" horiz-adv-x="1478" 
d="M129 -383v332q61 -6 127 -6q88 0 124.5 14t65.5 72l29 61l-520 1030h537l247 -575l248 575h537l-629 -1302q-33 -66 -61 -103t-74.5 -65.5t-113 -39.5t-169.5 -11q-137 0 -348 18zM164 1243v270h495v-270h-495zM819 1243v270h496v-270h-496z" />
    <glyph glyph-name="dotlessi" unicode="&#x131;" horiz-adv-x="757" 
d="M123 0v1120h512v-1120h-512z" />
    <glyph glyph-name="Lslash" unicode="&#x141;" horiz-adv-x="1630" 
d="M141 0v391l-139 -84v332l139 84v739h578v-420l342 203v-332l-342 -202v-318h895v-393h-1473z" />
    <glyph glyph-name="lslash" unicode="&#x142;" horiz-adv-x="757" 
d="M123 0v469l-123 -76v307l123 76v737h512v-436l123 76v-307l-123 -76v-770h-512z" />
    <glyph glyph-name="OE" unicode="&#x152;" horiz-adv-x="2387" 
d="M1157 571v326q0 118 -71.5 183t-165.5 65q-81 0 -136.5 -30.5t-86 -89t-43.5 -131t-13 -169.5q0 -92 13 -162t43.5 -127.5t86.5 -88t136 -30.5q94 0 165.5 66t71.5 188zM1159 0v84q-149 -135 -399 -135q-116 0 -217 26t-190 85.5t-152.5 148.5t-100.5 222t-37 300t37 300
t100.5 222t152.5 148.5t190 85.5t217 26q109 0 217.5 -30.5t179.5 -108.5v88h1172v-356h-676v-197h649v-356h-649v-197h686v-356h-1180z" />
    <glyph glyph-name="oe" unicode="&#x153;" horiz-adv-x="2387" 
d="M1401 678h465q-9 91 -75 148t-157 57q-92 0 -158 -57t-75 -148zM2327 444h-926q21 -206 239 -206q86 0 125.5 21t71.5 77h485q-37 -110 -104.5 -187.5t-158 -118t-185.5 -58t-209 -17.5q-309 0 -457 151q-163 -151 -458 -151q-155 0 -279.5 36t-217 108.5t-142.5 189.5
t-50 270q0 140 40.5 248.5t106 175t157.5 108.5t185 58t200 16q151 0 257 -30.5t201 -98.5q155 129 428 129q157 0 282 -38.5t217.5 -116.5t142 -203t49.5 -291v-72zM557 545q0 -271 234 -271q229 0 229 299q0 131 -61 202t-168 71q-59 0 -102.5 -18.5t-68 -47t-39.5 -70
t-19.5 -80t-4.5 -85.5z" />
    <glyph glyph-name="Scaron" unicode="&#x160;" horiz-adv-x="1970" 
d="M1128 522l-659 99q-203 31 -301 140t-98 271q0 111 43 195.5t117 138t183.5 87t230.5 47t271 13.5q321 0 528 -56t304.5 -160.5t107.5 -262.5h-671q0 84 -88 117q-69 31 -181 31q-231 0 -231 -105q0 -65 76 -76l690 -102q225 -33 348 -139t123 -287q0 -268 -227.5 -396
t-712.5 -128q-104 0 -192 4.5t-186 18t-175.5 35.5t-150 59.5t-121 88t-78 123t-29.5 162.5h696q3 -71 62 -104q67 -31 197 -31q127 0 178 31t51 88q0 36 -25 63t-80 35zM618 1573l-317 295h571l140 -156l139 156h518l-317 -295h-734z" />
    <glyph glyph-name="scaron" unicode="&#x161;" horiz-adv-x="1669" 
d="M961 393l-500 51q-213 22 -298 105.5t-85 238.5q0 196 183 286.5t562 90.5q730 0 742 -381h-578q0 48 -39 70q-53 29 -151 29q-106 0 -144.5 -20.5t-38.5 -57.5q0 -58 138 -70l487 -43q200 -18 290.5 -104t90.5 -234q0 -214 -189.5 -306.5t-601.5 -92.5q-402 0 -585 91
t-195 302h602q9 -65 64 -90q46 -20 145 -20q93 0 131.5 22.5t38.5 63.5q0 61 -69 69zM469 1231l-317 295h571l139 -156l139 156h519l-318 -295h-733z" />
    <glyph glyph-name="Ydieresis" unicode="&#x178;" horiz-adv-x="1703" 
d="M563 0v412l-649 1050h659l279 -573l278 573h660l-649 -1050v-412h-578zM276 1585v270h496v-270h-496zM932 1585v270h495v-270h-495z" />
    <glyph glyph-name="Zcaron" unicode="&#x17d;" horiz-adv-x="1744" 
d="M45 0v309l877 785h-818v368h1596v-319l-856 -774h833v-369h-1632zM506 1573l-318 295h572l139 -156l139 156h518l-317 -295h-733z" />
    <glyph glyph-name="zcaron" unicode="&#x17e;" horiz-adv-x="1441" 
d="M51 0v283l633 489v4h-596v344h1284v-295l-600 -465v-4h619v-356h-1340zM354 1231l-317 295h571l140 -156l139 156h518l-318 -295h-733z" />
    <glyph glyph-name="florin" unicode="&#x192;" horiz-adv-x="1228" 
d="M111 596l51 258h223l72 342q12 59 39.5 104t68.5 73.5t84.5 47t102.5 27t108 11.5t113 3q109 0 268 -18l-57 -295q-11 1 -31 2.5t-36.5 2.5t-31.5 1q-64 0 -93.5 -23.5t-45.5 -99.5l-37 -178h211l-53 -258h-211l-133 -641q-21 -104 -53.5 -169t-92.5 -108.5t-148.5 -61
t-223.5 -17.5q-47 0 -299 12l61 301q34 -6 86 -6q80 0 111 25.5t51 115.5l117 549h-221z" />
    <glyph glyph-name="circumflex" unicode="&#x2c6;" horiz-adv-x="569" 
d="M-399 1231l317 295h733l318 -295h-572l-139 155l-139 -155h-518z" />
    <glyph glyph-name="caron" unicode="&#x2c7;" horiz-adv-x="569" 
d="M-82 1231l-317 295h571l139 -156l140 156h518l-318 -295h-733z" />
    <glyph glyph-name="uni02C9" unicode="&#x2c9;" horiz-adv-x="569" 
d="M-299 1243v270h1167v-270h-1167z" />
    <glyph glyph-name="breve" unicode="&#x2d8;" horiz-adv-x="569" 
d="M508 1526h270q-36 -187 -166 -260q-111 -62 -327 -62q-83 0 -147 8t-124 29.5t-102 57t-73.5 92.5t-47.5 135h270q14 -55 76 -74q46 -14 148 -14q89 0 146 17t77 71z" />
    <glyph glyph-name="dotaccent" unicode="&#x2d9;" horiz-adv-x="569" 
d="M37 1243v270h495v-270h-495z" />
    <glyph glyph-name="ring" unicode="&#x2da;" horiz-adv-x="569" 
d="M2 1507q0 117 83 200t200 83t199.5 -83t82.5 -200t-82.5 -199.5t-199.5 -82.5t-200 82.5t-83 199.5zM162 1507q0 -51 36 -87t87 -36t87 36t36 87t-36 87t-87 36t-87 -36t-36 -87z" />
    <glyph glyph-name="ogonek" unicode="&#x2db;" horiz-adv-x="569" 
d="M782 41h230q-106 -65 -155.5 -110t-49.5 -97q0 -40 31.5 -64t83.5 -24q58 0 120 23l11 -107q-68 -14 -104.5 -21t-93.5 -12.5t-118 -5.5q-262 0 -262 170q0 83 83 149t224 99z" />
    <glyph glyph-name="tilde" unicode="&#x2dc;" horiz-adv-x="569" 
d="M666 1526h217q-35 -163 -117.5 -241.5t-192.5 -78.5q-55 0 -299 49.5t-286 49.5q-53 0 -82 -60h-219q88 318 333 318q45 0 291 -50q237 -49 267 -49q63 0 88 62z" />
    <glyph glyph-name="hungarumlaut" unicode="&#x2dd;" horiz-adv-x="569" 
d="M-487 1231l186 295h620l-313 -295h-493zM250 1231l186 295h621l-314 -295h-493z" />
    <glyph glyph-name="uni03A9" unicode="&#x3a9;" horiz-adv-x="1927" 
d="M426 324v8q-56 31 -107.5 75t-99.5 105.5t-77 145t-29 176.5q0 131 59 245t166.5 199.5t269.5 134.5t357 49q194 0 353.5 -48t267 -132.5t166 -201.5t58.5 -253q0 -90 -24 -165.5t-71 -135t-99.5 -103.5t-126.5 -91v-8h348v-324h-815v254q80 52 134 97.5t99 104.5
t66.5 130t21.5 159q0 171 -104.5 285.5t-269.5 114.5q-163 0 -274 -108.5t-111 -297.5q0 -156 85.5 -284.5t237.5 -200.5v-254h-821v324h340z" />
    <glyph glyph-name="uni03BC" unicode="&#x3bc;" horiz-adv-x="1703" 
d="M1581 1120v-1120h-496v125h-4q-51 -81 -124.5 -125.5t-145.5 -44.5q-104 0 -172 82h-4v-438h-512v1521h512v-594q0 -202 196 -202q118 0 178 70t60 198v528h512z" />
    <glyph glyph-name="pi" unicode="&#x3c0;" horiz-adv-x="1632" 
d="M1567 760h-148v-381q0 -254 27 -379h-457q-41 46 -41 342v418h-229q0 -203 -35 -435t-86 -325h-457q51 158 88 382.5t31 377.5q-151 0 -223 -17l-39 258q74 86 471 86h1137z" />
    <glyph glyph-name="endash" unicode="&#x2013;" horiz-adv-x="1024" 
d="M0 436v332h1024v-332h-1024z" />
    <glyph glyph-name="emdash" unicode="&#x2014;" horiz-adv-x="2048" 
d="M0 436v332h2048v-332h-2048z" />
    <glyph glyph-name="quoteleft" unicode="&#x2018;" horiz-adv-x="835" 
d="M150 586v348q0 117 39.5 211t98 150.5t134 95.5t140.5 54t124 17v-184q-111 -12 -173.5 -70t-68.5 -164h242v-458h-536z" />
    <glyph glyph-name="quoteright" unicode="&#x2019;" horiz-adv-x="835" 
d="M150 1004v458h536v-348q0 -117 -39.5 -211t-98 -150.5t-134 -95.5t-140.5 -54t-124 -17v184q230 26 241 234h-241z" />
    <glyph glyph-name="quotesinglbase" unicode="&#x201a;" horiz-adv-x="835" 
d="M150 0v459h536v-348q0 -98 -27 -180.5t-73 -138t-101.5 -97t-118 -65t-115.5 -35t-101 -13.5v185q230 26 241 233h-241z" />
    <glyph glyph-name="quotedblleft" unicode="&#x201c;" horiz-adv-x="1478" 
d="M836 586v348q0 117 39.5 211t98 150.5t134 95.5t140.5 54t124 17v-184q-111 -12 -173.5 -70t-68.5 -164h242v-458h-536zM106 586v348q0 117 39.5 211t98.5 150.5t134.5 95.5t140.5 54t124 17v-184q-111 -12 -173.5 -70t-68.5 -164h242v-458h-537z" />
    <glyph glyph-name="quotedblright" unicode="&#x201d;" horiz-adv-x="1478" 
d="M106 1004v458h537v-348q0 -117 -39.5 -211t-98.5 -150.5t-134.5 -95.5t-140.5 -54t-124 -17v184q111 12 173.5 70t68.5 164h-242zM836 1004v458h536v-348q0 -117 -39.5 -211t-98 -150.5t-134 -95.5t-140.5 -54t-124 -17v184q230 26 241 234h-241z" />
    <glyph glyph-name="quotedblbase" unicode="&#x201e;" horiz-adv-x="1478" 
d="M106 0v459h537v-348q0 -85 -20.5 -158t-55 -125.5t-81 -95t-95.5 -69t-102 -45t-97.5 -27t-85.5 -9.5v185q231 26 242 233h-242zM836 0v459h536v-348q0 -98 -27 -180.5t-73 -138t-101.5 -97t-118 -65t-115.5 -35t-101 -13.5v185q230 26 241 233h-241z" />
    <glyph glyph-name="dagger" unicode="&#x2020;" horiz-adv-x="1974" 
d="M211 696v357h508v409h536v-409h508v-357h-508v-1097h-536v1097h-508z" />
    <glyph glyph-name="daggerdbl" unicode="&#x2021;" horiz-adv-x="1974" 
d="M211 -25v320h520v471h-520v319h520v377h512v-377h520v-319h-520v-471h520v-320h-520v-376h-512v376h-520z" />
    <glyph glyph-name="bullet" unicode="&#x2022;" horiz-adv-x="1024" 
d="M147 731q0 151 107 258t258 107t258 -107t107 -258t-107 -257.5t-258 -106.5t-258 106.5t-107 257.5z" />
    <glyph glyph-name="ellipsis" unicode="&#x2026;" horiz-adv-x="2048" 
d="M74 0v459h536v-459h-536zM756 0v459h536v-459h-536zM1438 0v459h536v-459h-536z" />
    <glyph glyph-name="perthousand" unicode="&#x2030;" horiz-adv-x="2387" 
d="M260 1102q0 -116 17 -158.5t69 -42.5q53 0 69.5 41.5t16.5 159.5q0 116 -17 158.5t-69 42.5q-51 0 -68.5 -43t-17.5 -158zM190 -41l959 1503h262l-958 -1503h-263zM1169 319q0 -116 17 -158t69 -42q53 0 69.5 41.5t16.5 158.5q0 116 -17 158.5t-69 42.5q-51 0 -68.5 -43
t-17.5 -158zM2 1102q0 360 344 360q179 0 261.5 -92t82.5 -268q0 -177 -82.5 -269t-261.5 -92q-178 0 -261 92t-83 269zM911 319q0 361 344 361q179 0 261.5 -92.5t82.5 -268.5q0 -177 -82 -268.5t-262 -91.5q-178 0 -261 91.5t-83 268.5zM1698 319q0 361 344 361
q179 0 261.5 -92.5t82.5 -268.5q0 -177 -82 -268.5t-262 -91.5q-178 0 -261 91.5t-83 268.5zM1956 319q0 -116 17 -158t69 -42q53 0 69.5 41.5t16.5 158.5q0 116 -17 158.5t-69 42.5q-51 0 -68.5 -43t-17.5 -158z" />
    <glyph glyph-name="guilsinglleft" unicode="&#x2039;" horiz-adv-x="835" 
d="M180 399v406l443 330v-344l-256 -189l256 -188v-344z" />
    <glyph glyph-name="guilsinglright" unicode="&#x203a;" horiz-adv-x="835" 
d="M213 70v344l256 188l-256 189v344l442 -330v-406z" />
    <glyph glyph-name="fraction" unicode="&#x2044;" horiz-adv-x="339" 
d="M-440 -41l958 1503h262l-958 -1503h-262z" />
    <glyph glyph-name="Euro" unicode="&#x20ac;" horiz-adv-x="1974" 
d="M1888 1325l-227 -334q-113 62 -210.5 96.5t-197.5 34.5q-117 0 -193 -51t-126 -158h686l-109 -174h-612v-30v-33h580l-107 -174h-442q40 -117 124 -169t212 -52q135 0 248 41.5t260 126.5l-2 -422q-294 -76 -562 -76q-106 0 -198.5 10t-187 33t-171.5 64.5t-142.5 100.5
t-111.5 146.5t-67 196.5h-197l107 174h73q-3 10 -3.5 20t0.5 23t1 20h-178l107 174h90q107 537 907 537q335 0 649 -125z" />
    <glyph glyph-name="afii61289" unicode="&#x2113;" horiz-adv-x="1478" 
d="M1227 492l190 -193q-59 -90 -136.5 -156t-162.5 -103t-169.5 -54t-172.5 -17q-190 0 -306 64.5t-175 220.5q-1 2 -2 6.5t-2 7.5q-76 -44 -101 -57l-124 211q94 60 215 129v373q0 328 130 484.5t388 156.5q111 0 198 -32.5t140 -88.5t80.5 -126.5t27.5 -150.5
q0 -98 -32.5 -186t-103.5 -174t-162 -165.5t-228 -178.5l6 -21q10 -53 53.5 -88t114.5 -35q89 0 177.5 48.5t156.5 124.5zM719 1067v-250q90 81 141 176t51 174q0 59 -22.5 91t-61.5 32q-49 0 -78.5 -53t-29.5 -170z" />
    <glyph glyph-name="trademark" unicode="&#x2122;" horiz-adv-x="2048" 
d="M227 618v623h-229v221h754v-221h-230v-623h-295zM1698 618v549h-4l-168 -549h-209l-168 549h-4v-549h-271v844h394l151 -487h4l152 487h393v-844h-270z" />
    <glyph glyph-name="Omega" unicode="&#x2126;" horiz-adv-x="1927" 
d="M426 324v8q-56 31 -107.5 75t-99.5 105.5t-77 145t-29 176.5q0 131 59 245t166.5 199.5t269.5 134.5t357 49q194 0 353.5 -48t267 -132.5t166 -201.5t58.5 -253q0 -90 -24 -165.5t-71 -135t-99.5 -103.5t-126.5 -91v-8h348v-324h-815v254q80 52 134 97.5t99 104.5
t66.5 130t21.5 159q0 171 -104.5 285.5t-269.5 114.5q-163 0 -274 -108.5t-111 -297.5q0 -156 85.5 -284.5t237.5 -200.5v-254h-821v324h340z" />
    <glyph glyph-name="estimated" unicode="&#x212e;" horiz-adv-x="1802" 
d="M1731 690h-1346q-10 0 -10 -10v-406q0 -26 18 -47q99 -104 230.5 -162.5t277.5 -58.5q158 0 297 66.5t238 181.5h120q-115 -133 -287.5 -211t-369.5 -78q-169 0 -322.5 59t-264.5 159t-176.5 238t-65.5 290t65.5 290t176.5 238.5t264.5 159.5t322.5 59q170 0 324 -59
t265.5 -159.5t177 -238.5t65.5 -290v-21zM1425 743v408q0 32 -20 49q-100 100 -230 156.5t-274 56.5t-274.5 -58t-231.5 -161q-20 -17 -20 -51v-400q0 -4 3 -9t7 -5h1032q8 0 8 14z" />
    <glyph glyph-name="partialdiff" unicode="&#x2202;" horiz-adv-x="1531" 
d="M236 1198l-132 277q235 139 545 139q234 0 417 -103t284.5 -288t101.5 -422q0 -196 -63 -355.5t-173 -262.5t-255 -158.5t-312 -55.5q-119 0 -220 33.5t-168.5 87t-115 121.5t-69 136t-21.5 132q0 109 39 207.5t110 174.5t180 120.5t241 44.5q74 0 139 -18t111 -47
t75.5 -56t50.5 -55h3v22q0 79 -25.5 151t-74 131.5t-130 94.5t-184.5 35q-179 0 -354 -86zM700 291h2q95 0 168.5 79.5t87.5 180.5q-11 55 -71 108.5t-146 53.5q-103 0 -167 -66t-64 -168q0 -86 55 -137t135 -51z" />
    <glyph glyph-name="Delta" unicode="&#x2206;" horiz-adv-x="1724" 
d="M43 0v201l543 1267h559l534 -1267v-201h-1636zM547 328h592l-207 555q-59 156 -92 266h-11q-69 -216 -81 -252z" />
    <glyph glyph-name="product" unicode="&#x220f;" horiz-adv-x="1845" 
d="M1810 1083h-251v-1282h-441v1282h-393v-1282h-440v1282h-252v353h1777v-353z" />
    <glyph glyph-name="summation" unicode="&#x2211;" horiz-adv-x="1468" 
d="M1442 -199h-1399v226l545 577l-512 561v271h1302v-353h-673v-8l397 -430l-443 -481v-10h783v-353z" />
    <glyph glyph-name="minus" unicode="&#x2212;" horiz-adv-x="1228" 
d="M96 371v295h1037v-295h-1037z" />
    <glyph glyph-name="uni2215" unicode="&#x2215;" horiz-adv-x="339" 
d="M-440 -41l958 1503h262l-958 -1503h-262z" />
    <glyph glyph-name="uni2219" unicode="&#x2219;" horiz-adv-x="835" 
d="M150 500q0 110 79 189t189 79t189 -79t79 -189t-79 -189.5t-189 -79.5t-189 79.5t-79 189.5z" />
    <glyph glyph-name="radical" unicode="&#x221a;" horiz-adv-x="1562" 
d="M1642 1716l-610 -2033h-340l-395 874l-174 -74l-72 197l504 209l246 -631q37 -93 65 -182h4q8 28 25 95t25 97l405 1448h317z" />
    <glyph glyph-name="infinity" unicode="&#x221e;" horiz-adv-x="1726" 
d="M1632 600v-2q0 -95 -32.5 -174t-86 -129.5t-121.5 -78.5t-141 -28q-46 0 -86.5 7.5t-94 29t-108.5 71t-106 124.5q-90 -115 -180 -173.5t-211 -58.5q-99 0 -183.5 46.5t-138 138.5t-53.5 211q0 179 112.5 291t282.5 112q124 0 217 -54t177 -167q3 3 24.5 28t29 33
t30.5 32t37 34t39.5 29t47.5 28t50.5 19.5t59.5 14.5t65 3q154 -2 262 -107.5t108 -279.5zM485 397h4q122 0 254 176q-27 42 -38 58t-35 47.5t-39.5 44t-40 29t-50.5 22.5t-57 6q-74 0 -125 -51t-51 -143q0 -76 52.5 -132.5t125.5 -56.5zM1239 780h-2q-32 0 -64 -13.5
t-54 -28.5t-52 -47t-43 -48t-41 -53q84 -116 142 -154.5t126 -38.5q74 0 118 58.5t44 126.5q0 86 -47 142t-127 56z" />
    <glyph glyph-name="integral" unicode="&#x222b;" horiz-adv-x="948" 
d="M944 1776l-37 -252q-48 10 -92 10q-43 0 -78 -18.5t-53 -47.5q-26 -41 -35.5 -112.5t-9.5 -202.5q0 -165 20.5 -450.5t20.5 -485.5q0 -262 -78 -399q-57 -102 -156.5 -151.5t-214.5 -49.5q-143 0 -221 35l45 264q46 -16 107 -16q78 0 119 47q31 39 44 101t13 177
q0 204 -21.5 499.5t-21.5 473.5q0 182 39.5 297t124.5 199q54 53 142 79.5t185 26.5q100 0 158 -24z" />
    <glyph glyph-name="approxequal" unicode="&#x2248;" horiz-adv-x="1331" 
d="M1116 1012l152 -160q-85 -115 -181 -171t-184 -56q-73 0 -128 19.5t-138 64.5q-40 22 -59.5 31.5t-57.5 20.5t-74 11q-70 0 -128 -38t-119 -109l-150 159q60 91 173 158.5t224 67.5q138 0 242 -68q78 -48 114 -63t85 -15q110 0 229 148zM1116 569l152 -159
q-85 -115 -180.5 -171.5t-188.5 -56.5q-71 0 -128 20t-134 62q-47 25 -65 34t-53.5 19.5t-69.5 10.5q-73 0 -130 -37.5t-120 -108.5l-150 160q60 90 174.5 157.5t225.5 67.5q126 0 237 -65q8 -5 44.5 -27.5t50.5 -29.5t43.5 -16t58.5 -9q63 0 115 35.5t118 113.5z" />
    <glyph glyph-name="notequal" unicode="&#x2260;" horiz-adv-x="1331" 
d="M1012 1090l-72 -154h285v-229h-387l-113 -244h500v-230h-604l-113 -247l-189 88l74 159h-284v230h387l112 244h-499v229h602l112 242z" />
    <glyph glyph-name="lessequal" unicode="&#x2264;" horiz-adv-x="1331" 
d="M1225 305l-1116 461v246l1114 458v-247l-861 -332v-4l863 -332v-250zM1225 0h-1116v236h1116v-236z" />
    <glyph glyph-name="greaterequal" unicode="&#x2265;" horiz-adv-x="1331" 
d="M109 1470l1116 -460v-246l-1114 -459v250l860 332v4l-862 332v247zM1210 0h-1099v236h1099v-236z" />
    <glyph glyph-name="lozenge" unicode="&#x25ca;" horiz-adv-x="1562" 
d="M1464 715l-518 -807h-336l-514 807l514 811h336zM1083 707l-266 450q-35 57 -41 74h-4q-11 -25 -41 -74l-254 -434l266 -453q4 -8 19 -34.5t18 -34.5h6q5 8 19 33.5t20 35.5z" />
    </font>
</defs>
</svg>
